T-ARA & Supernova - TTL (tvN HD)

Discussion in 'TVN HD' started by yukides, Apr 19, 2014.

  1. yukides

    yukides Active Member

    Joined:
    Nov 15, 2013
    Messages:
    167
    Likes Received:
    78
    T-ARA & Supernova - TTL (tvN HD)

    [​IMG]
    Format : MPEG-TS
    File size : 214 MiB
    Duration : 3mn 27s
    Overall bit rate mode : Variable
    Overall bit rate : 8 590 Kbps

    Video
    ID : 1280 (0x500)
    Menu ID : 129 (0x81)
    Format : AVC
    Format/Info : Advanced Video Codec
    Format profile : [email protected]
    Format settings, CABAC : Yes
    Format settings, ReFrames : 4 frames
    Format settings, GOP : M=1, N=12
    Codec ID : 27
    Duration : 3mn 28s
    Bit rate : 7 777 Kbps
    Width : 1 920 pixels
    Height : 1 080 pixels
    Display aspect ratio : 16:9
    Frame rate : 29.970 fps
    Color space : YUV
    Chroma subsampling : 4:2:0
    Bit depth : 8 bits
    Scan type : Interlaced
    Scan order : Top Field First
    Bits/(Pixel*Frame) : 0.125
    Stream size : 193 MiB (90%)
    Color primaries : BT.709
    Transfer characteristics : BT.709
    Matrix coefficients : BT.709

    Audio
    ID : 1281 (0x501)
    Menu ID : 129 (0x81)
    Format : AC-3
    Format/Info : Audio Coding 3
    Mode extension : CM (complete main)
    Format settings, Endianness : Big
    Codec ID : 129
    Duration : 3mn 28s
    Bit rate mode : Constant
    Bit rate : 384 Kbps
    Channel(s) : 2 channels
    Channel positions : Front: L R
    Sampling rate : 48.0 KHz
    Bit depth : 16 bits
    Compression mode : Lossy
    Delay relative to video : -115ms
    Stream size : 9.52 MiB (4%)

    Link:
    Hidden Content:
    You must reply before you can see the hidden data contained here.
     
    rhea likes this.
  2. sori

    sori Member

    Joined:
    Oct 22, 2013
    Messages:
    111
    Likes Received:
    0
    Thanks
     
  3. Henry Lee

    Henry Lee Member

    Joined:
    Apr 5, 2014
    Messages:
    38
    Likes Received:
    1
  4. rhea

    rhea Well-Known Member

    Joined:
    Jan 6, 2014
    Messages:
    5,886
    Likes Received:
    447
    thanks
     
  5. quake1

    quake1 New Member

    Joined:
    Sep 7, 2014
    Messages:
    10
    Likes Received:
    0
  6. Hyrus

    Hyrus Arianator / Selenator / Victorian / LBS* Donor

    Joined:
    Feb 9, 2015
    Messages:
    1,171
    Likes Received:
    778
    Thanks for sharing
     
  7. ductamnd

    ductamnd New Member

    Joined:
    Jan 26, 2016
    Messages:
    17
    Likes Received:
    0
    Thank for sharing
     
  8. jhl2016

    jhl2016 Member

    Joined:
    Mar 25, 2016
    Messages:
    108
    Likes Received:
    5
    Oh I have looked everywhere for a decent quality version of this MV, thank you!
     
  9. wkwkwaku

    wkwkwaku Active Member

    Joined:
    May 23, 2015
    Messages:
    690
    Likes Received:
    145
    thanks
     
  10. tranmanduy

    tranmanduy Member

    Joined:
    Jan 5, 2017
    Messages:
    153
    Likes Received:
    3
    love you