T-ARA & Supernova - TTL (tvN HD)

Discussion in 'TVN HD' started by yukides, Apr 19, 2014.

  1. yukides

    yukides Active Member

    Joined:
    Nov 15, 2013
    Messages:
    245
    Likes Received:
    163
    T-ARA & Supernova - TTL (tvN HD)

    [​IMG]
    Format : MPEG-TS
    File size : 214 MiB
    Duration : 3mn 27s
    Overall bit rate mode : Variable
    Overall bit rate : 8 590 Kbps

    Video
    ID : 1280 (0x500)
    Menu ID : 129 (0x81)
    Format : AVC
    Format/Info : Advanced Video Codec
    Format profile : Main@L4.0
    Format settings, CABAC : Yes
    Format settings, ReFrames : 4 frames
    Format settings, GOP : M=1, N=12
    Codec ID : 27
    Duration : 3mn 28s
    Bit rate : 7 777 Kbps
    Width : 1 920 pixels
    Height : 1 080 pixels
    Display aspect ratio : 16:9
    Frame rate : 29.970 fps
    Color space : YUV
    Chroma subsampling : 4:2:0
    Bit depth : 8 bits
    Scan type : Interlaced
    Scan order : Top Field First
    Bits/(Pixel*Frame) : 0.125
    Stream size : 193 MiB (90%)
    Color primaries : BT.709
    Transfer characteristics : BT.709
    Matrix coefficients : BT.709

    Audio
    ID : 1281 (0x501)
    Menu ID : 129 (0x81)
    Format : AC-3
    Format/Info : Audio Coding 3
    Mode extension : CM (complete main)
    Format settings, Endianness : Big
    Codec ID : 129
    Duration : 3mn 28s
    Bit rate mode : Constant
    Bit rate : 384 Kbps
    Channel(s) : 2 channels
    Channel positions : Front: L R
    Sampling rate : 48.0 KHz
    Bit depth : 16 bits
    Compression mode : Lossy
    Delay relative to video : -115ms
    Stream size : 9.52 MiB (4%)

    Link:
    Hidden Content:
    You must reply before you can see the hidden data contained here.
     
  2. sori

    sori Member

    Joined:
    Oct 22, 2013
    Messages:
    178
    Likes Received:
    14
    Thanks
     
  3. Henry Lee

    Henry Lee Member

    Joined:
    Apr 5, 2014
    Messages:
    38
    Likes Received:
    1
  4. rhea

    rhea Well-Known Member

    Joined:
    Jan 6, 2014
    Messages:
    11,174
    Likes Received:
    2,145
    thanks
     
  5. quake1

    quake1 New Member

    Joined:
    Sep 7, 2014
    Messages:
    10
    Likes Received:
    0
  6. Hyrus

    Hyrus Arianator / Selenator / Victorian / Saxobeat / LBS Donor

    Joined:
    Feb 9, 2015
    Messages:
    1,570
    Likes Received:
    1,750
    Thanks for sharing
     
  7. ductamnd

    ductamnd Active Member

    Joined:
    Jan 26, 2016
    Messages:
    372
    Likes Received:
    55
    Thank for sharing
     
  8. jhl2016

    jhl2016 Member

    Joined:
    Mar 25, 2016
    Messages:
    223
    Likes Received:
    10
    Oh I have looked everywhere for a decent quality version of this MV, thank you!
     
  9. wkwkwaku

    wkwkwaku Well-Known Member

    Joined:
    May 23, 2015
    Messages:
    810
    Likes Received:
    436
    thanks
     
  10. tranmanduy

    tranmanduy Member

    Joined:
    Jan 5, 2017
    Messages:
    200
    Likes Received:
    9
    love you
     
  11. lyana94

    lyana94 Well-Known Member

    Joined:
    Jul 5, 2017
    Messages:
    2,051
    Likes Received:
    86
    THA
    NKS
     
  12. NiceBoy

    NiceBoy Member

    Joined:
    May 20, 2016
    Messages:
    243
    Likes Received:
    5
    Many Thanks
     
  13. brownbradpitt613

    brownbradpitt613 Active Member

    Joined:
    Sep 3, 2017
    Messages:
    755
    Likes Received:
    31
    thanks!
     
  14. jb13

    jb13 Well-Known Member

    Joined:
    Oct 24, 2017
    Messages:
    1,380
    Likes Received:
    63
    gracias
     
  15. glorfingold

    glorfingold New Member

    Joined:
    Aug 14, 2016
    Messages:
    7
    Likes Received:
    0
  16. Jhon767

    Jhon767 Member

    Joined:
    Sep 5, 2019
    Messages:
    345
    Likes Received:
    6
    Busque este video por 3 años
     
  17. Felix

    Felix Member

    Joined:
    Aug 5, 2019
    Messages:
    68
    Likes Received:
    2
    Thanks