T-ARA - I Go Crazy Because of You (Mnet HD)

Discussion in 'MNET' started by yukides, Apr 19, 2014.

  1. yukides

    yukides Active Member

    Joined:
    Nov 15, 2013
    Messages:
    170
    Likes Received:
    85
    T-ARA - I Go Crazy Because of You (Mnet HD)

    [​IMG]
    Code:
    Format                                   : MPEG-TS
    File size                                : 495 MiB
    Duration                                 : 3mn 32s
    Overall bit rate mode                    : Variable
    Overall bit rate                         : 19.5 Mbps
    
    Video
    ID                                       : 1001 (0x3E9)
    Menu ID                                  : 1 (0x1)
    Format                                   : MPEG Video
    Format version                           : Version 2
    Format profile                           : [email protected]
    Format settings, BVOP                    : Yes
    Format settings, Matrix                  : Default
    Format settings, GOP                     : M=3, N=12
    Codec ID                                 : 2
    Duration                                 : 3mn 32s
    Bit rate mode                            : Variable
    Bit rate                                 : 18.3 Mbps
    Maximum bit rate                         : 20.0 Mbps
    Width                                    : 1 920 pixels
    Height                                   : 1 080 pixels
    Display aspect ratio                     : 16:9
    Frame rate                               : 29.970 fps
    Color space                              : YUV
    Chroma subsampling                       : 4:2:0
    Bit depth                                : 8 bits
    Scan type                                : Interlaced
    Scan order                               : Bottom Field First
    Compression mode                         : Lossy
    Bits/(Pixel*Frame)                       : 0.295
    Time code of first frame                 : 00:00:00;00
    Time code source                         : Group of pictures header
    Stream size                              : 466 MiB (94%)
    
    Audio
    ID                                       : 1002 (0x3EA)
    Menu ID                                  : 1 (0x1)
    Format                                   : MPEG Audio
    Format version                           : Version 1
    Format profile                           : Layer 2
    Codec ID                                 : 3
    Duration                                 : 3mn 32s
    Bit rate mode                            : Constant
    Bit rate                                 : 192 Kbps
    Channel(s)                               : 2 channels
    Sampling rate                            : 48.0 KHz
    Compression mode                         : Lossy
    Stream size                              : 4.87 MiB (1%)
    Language                                 : English

    Link

    Hidden Content:
    You must reply before you can see the hidden data contained here.
     
    Last edited: Apr 22, 2014
    lyana94 and rhea like this.
  2. Loading...


  3. rhea

    rhea Well-Known Member

    Joined:
    Jan 6, 2014
    Messages:
    6,145
    Likes Received:
    496
    thanks
     
  4. Cesar

    Cesar Member

    Joined:
    Nov 11, 2013
    Messages:
    413
    Likes Received:
    13
    thanks
     
  5. jakakecu

    jakakecu Member

    Joined:
    Dec 9, 2013
    Messages:
    125
    Likes Received:
    0
    thank youuu
     
  6. talata

    talata Member

    Joined:
    Nov 14, 2013
    Messages:
    262
    Likes Received:
    6
    Thanks 4 share!
     
  7. ryualviss

    ryualviss Active Member

    Joined:
    Jan 6, 2014
    Messages:
    151
    Likes Received:
    520
    much appreciated, thanks:greedy:
     
  8. abc

    abc New Member

    Joined:
    Sep 20, 2014
    Messages:
    5
    Likes Received:
    0
    thank you
     
  9. gstnedgrdrch93

    gstnedgrdrch93 Member

    Joined:
    Oct 12, 2014
    Messages:
    54
    Likes Received:
    1
     
  10. DETOX

    DETOX Well-Known Member V . I . P. Uploader

    Joined:
    Feb 20, 2014
    Messages:
    2,902
    Likes Received:
    19,355
    Thank you so much!
     
  11. Zeeh

    Zeeh Member

    Joined:
    Mar 20, 2015
    Messages:
    582
    Likes Received:
    12
    Thanks
     
  12. ductamnd

    ductamnd New Member

    Joined:
    Jan 26, 2016
    Messages:
    17
    Likes Received:
    0
    Thanks! :D
     
  13. wkwkwaku

    wkwkwaku Active Member

    Joined:
    May 23, 2015
    Messages:
    686
    Likes Received:
    163
  14. SelinaAnt

    SelinaAnt New Member

    Joined:
    Jan 19, 2017
    Messages:
    3
    Likes Received:
    1
  15. ns210193

    ns210193 Member

    Joined:
    Jun 16, 2016
    Messages:
    77
    Likes Received:
    2
    Excelent
     
  16. faz

    faz Member

    Joined:
    Jan 9, 2014
    Messages:
    265
    Likes Received:
    2
    thanks
     
  17. tranmanduy

    tranmanduy Member

    Joined:
    Jan 5, 2017
    Messages:
    155
    Likes Received:
    4
  18. lyana94

    lyana94 Member

    Joined:
    Jul 5, 2017
    Messages:
    780
    Likes Received:
    15
    thanks