DVD5 t.A.T.u. ‎– TRUTH Live In St. Petersburg

Discussion in 'DVD' started by adam dark, Aug 11, 2017.

  1. adam dark

    adam dark Video Music Lover <3 V . I . P.

    Joined:
    Dec 5, 2013
    Messages:
    2,664
    Likes Received:
    5,689
    t.A.T.u. ‎– TRUTH Live In St. Petersburg

    [​IMG]
    [​IMG]
    [​IMG]
    [​IMG]
    [​IMG]
    Code:
    General
    Complete name                  : TRUTH_DVD
    Format                         : MPEG-PS
    File size                      : 4.51 GiB
    Duration                       : 1 h 18 min 22 s
    Overall bit rate mode          : Variable
    Overall bit rate               : 8 430 kb/s
    
    Video
    ID                             : 224 (0xE0)
    Format                         : MPEG Video
    Format version                 : Version 2
    Format profile                 : Main@Main
    Format settings, BVOP          : Yes
    Format settings, Matrix        : Custom
    Format settings, GOP           : M=3, N=15
    Format settings, picture struc : Frame
    Duration                       : 16 min 58 s
    Bit rate mode                  : Variable
    Bit rate                       : 6 727 kb/s
    Maximum bit rate               : 8 000 kb/s
    Width                          : 720 pixels
    Height                         : 480 pixels
    Display aspect ratio           : 4:3
    Frame rate                     : 29.970 (30000/1001) FPS
    Standard                       : NTSC
    Color space                    : YUV
    Chroma subsampling             : 4:2:0
    Bit depth                      : 8 bits
    Scan type                      : Interlaced
    Scan order                     : Top Field First
    Compression mode               : Lossy
    Bits/(Pixel*Frame)             : 0.649
    Time code of first frame       : 00:59:59:10
    Time code source               : Group of pictures header
    GOP, Open/Closed               : Closed
    Stream size                    : 817 MiB (80%)
    
    Audio
    ID                             : 189 (0xBD)-160 (0xA0)
    Format                         : PCM
    Format settings, Endianness    : Big
    Format settings, Sign          : Signed
    Muxing mode                    : DVD-Video
    Duration                       : 16 min 58 s
    Bit rate mode                  : Constant
    Bit rate                       : 1 536 kb/s
    Channel(s)                     : 2 channels
    Sampling rate                  : 48.0 kHz
    Bit depth                      : 16 bits
    Stream size                    : 186 MiB (18%)
    
    Text
    ID                             : 189 (0xBD)-32 (0x20)
    Format                         : RLE
    Format/Info                    : Run-length encoding
    Muxing mode                    : DVD-Video
    Delay relative to video        : 1 s 601 ms
    
    Menu
    Code:
    1    Show Intro
    Written-By – Domen Vajevec, Steven Wilson*, Sven Martin (2), Troy Maccubbin
    2    Dangerous And Moving (Ludi Invalidi)
    Concept By – T.A. Music
    3    All About Us
    Music By, Lyrics By – B. Steinberg*, J. Alexander*, J. Origliasso*, L. Origliasso*
    4    Loves Me Not
    Music By, Lyrics By – A. Kubiszewski*, E. Buller*
    Producer – M. Kierszenbaum*
    5    Sacrifice   
    6    We Shout (Nichya)
    Music By, Lyrics By – Nekkermann
    7    Friend Or Foe
    Music By – David Stewart*
    8    Obezyanka Nol
    Music By – V. Adarichev, A. Pokutni*
    9    Gomenasai
    Music By – Martin Kierszenbaum
    10    Show Me Love   
    11    How Soon Is Now?
    Written-By – J.Marr*, Morrissey
    12    Not Gonna Get Us (Nas Ne Dogonyat)
    Lyrics By – E. Kiper*
    Producer – Trevor Horn
    13    Ne Ver', Ne Boisya, Ne Prosi
    Music By – Mars Lasar
    14    All The Things She Said (Ya Soshla S Uma)
    Lyrics By – E. Kiper*
    Producer – Trevor Horn
    Hidden Content:
    You must reply before you can see the hidden data contained here.
     
    Gil0 and sideshow_bob like this.
  2. Loading...


  3. jack_black

    jack_black Well-Known Member

    Joined:
    Feb 16, 2014
    Messages:
    1,021
    Likes Received:
    845
    Thank you so much!
     
  4. ImLoser

    ImLoser Well-Known Member

    Joined:
    May 12, 2016
    Messages:
    2,564
    Likes Received:
    91
    thanks
     
  5. HDcollector

    HDcollector Member

    Joined:
    Dec 15, 2013
    Messages:
    440
    Likes Received:
    8
  6. hanshermann

    hanshermann Well-Known Member Uploader

    Joined:
    Aug 24, 2016
    Messages:
    7,083
    Likes Received:
    11,869
    wahts taht
     
  7. Pedro Correia

    Pedro Correia Well-Known Member

    Joined:
    Apr 17, 2014
    Messages:
    1,370
    Likes Received:
    145
    Thank you so much!
     
  8. janlyn

    janlyn Member

    Joined:
    Aug 10, 2017
    Messages:
    446
    Likes Received:
    17
    thanks
     
  9. NiceBoy

    NiceBoy Member

    Joined:
    May 20, 2016
    Messages:
    237
    Likes Received:
    5
    Many Thanks
     
  10. maxstock93

    maxstock93 Member

    Joined:
    Sep 21, 2014
    Messages:
    113
    Likes Received:
    9
  11. sideshow_bob

    sideshow_bob Well-Known Member

    Joined:
    Dec 20, 2013
    Messages:
    3,246
    Likes Received:
    238
  12. kryza

    kryza Member

    Joined:
    Oct 23, 2013
    Messages:
    682
    Likes Received:
    22
    thank u
     
  13. DiavoloStreetwear

    DiavoloStreetwear Active Member

    Joined:
    Jan 4, 2016
    Messages:
    299
    Likes Received:
    48
    Thank you very much!
     
    adam dark likes this.
  14. exterminador

    exterminador Well-Known Member

    Joined:
    Jul 3, 2016
    Messages:
    2,456
    Likes Received:
    208
  15. revilo18

    revilo18 Well-Known Member

    Joined:
    May 26, 2016
    Messages:
    2,243
    Likes Received:
    113
    thankkk
     
  16. multimediafm

    multimediafm Well-Known Member Donor

    Joined:
    Mar 27, 2014
    Messages:
    13,380
    Likes Received:
    1,058
  17. alterion

    alterion Well-Known Member

    Joined:
    May 7, 2016
    Messages:
    1,174
    Likes Received:
    31
  18. nenosouza

    nenosouza Member

    Joined:
    Nov 13, 2017
    Messages:
    32
    Likes Received:
    0
  19. Gabo Cicco

    Gabo Cicco Member

    Joined:
    Jan 16, 2018
    Messages:
    49
    Likes Received:
    0
  20. akado5000

    akado5000 Member

    Joined:
    Apr 24, 2018
    Messages:
    366
    Likes Received:
    20
    Muchas Gracias
     
  21. SuckerBaby

    SuckerBaby Member

    Joined:
    Mar 4, 2016
    Messages:
    86
    Likes Received:
    7
    Thanks