Sza Ft. Justin Timberlake - The Other Side | (M6HD-1080i-DD2.0-IboYLDz)-HDMania

Discussion in 'M6 HD' started by By.YLDz, Mar 29, 2020.

  1. By.YLDz

    By.YLDz Hayley Williams Fan :) Capper

    Joined:
    Oct 7, 2013
    Messages:
    578
    Likes Received:
    6,051
    CappeD IboYLDz

    [​IMG]
    [​IMG]
    [​IMG]
    [​IMG]
    [​IMG]
    [​IMG]
    [​IMG]


    Format : MPEG-TS
    File size : 210 MiB
    Duration : 3 min 5 s
    Overall bit rate mode : Variable
    Overall bit rate : 9 533 kb/s

    Video
    ID : 310 (0x136)
    Menu ID : 9303 (0x2457)
    Format : AVC
    Format/Info : Advanced Video Codec
    Format profile : High@L4
    Format settings : CABAC / 4 Ref Frames
    Format settings, CABAC : Yes
    Format settings, Reference : 4 frames
    Codec ID : 27
    Duration : 3 min 4 s
    Bit rate : 8 480 kb/s
    Width : 1 920 pixels
    Height : 1 080 pixels
    Display aspect ratio : 16:9
    Frame rate : 25.000 FPS
    Standard : Component
    Color space : YUV
    Chroma subsampling : 4:2:0
    Bit depth : 8 bits
    Scan type : MBAFF
    Scan type, store method : Separated fields
    Scan order : Top Field First
    Bits/(Pixel*Frame) : 0.164
    Stream size : 187 MiB (89%)
    Color range : Limited
    Color primaries : BT.709
    Transfer characteristics : BT.709
    Matrix coefficients : BT.709

    Audio #1
    ID : 321 (0x141)
    Menu ID : 9303 (0x2457)
    Format : AC-3
    Format/Info : Audio Coding 3
    Commercial name : Dolby Digital
    Codec ID : 6
    Duration : 3 min 5 s
    Bit rate mode : Constant
    Bit rate : 192 kb/s
    Channel(s) : 2 channels
    Channel layout : L R
    Sampling rate : 48.0 kHz
    Frame rate : 31.250 FPS (1536 SPF)
    Compression mode : Lossy
    Delay relative to video : -160 ms
    Stream size : 4.24 MiB (2%)
    Language : French
    Service kind : Complete Main

    Audio #2
    ID : 322 (0x142)
    Menu ID : 9303 (0x2457)
    Format : AC-3
    Format/Info : Audio Coding 3
    Commercial name : Dolby Digital
    Codec ID : 6
    Duration : 3 min 5 s
    Bit rate mode : Constant
    Bit rate : 192 kb/s
    Channel(s) : 2 channels
    Channel layout : L R
    Sampling rate : 48.0 kHz
    Frame rate : 31.250 FPS (1536 SPF)
    Compression mode : Lossy
    Delay relative to video : -160 ms
    Stream size : 4.24 MiB (2%)
    Language : English
    Service kind : Complete Main

    Audio #3
    ID : 323 (0x143)
    Menu ID : 9303 (0x2457)
    Format : AC-3
    Format/Info : Audio Coding 3
    Commercial name : Dolby Digital
    Codec ID : 6
    Duration : 3 min 5 s
    Bit rate mode : Constant
    Bit rate : 192 kb/s
    Channel(s) : 2 channels
    Channel layout : L R
    Sampling rate : 48.0 kHz
    Frame rate : 31.250 FPS (1536 SPF)
    Compression mode : Lossy
    Delay relative to video : -160 ms
    Stream size : 4.24 MiB (2%)
    Language : qad
    Service kind : Complete Main

    Text
    ID : 343 (0x157)
    Menu ID : 9303 (0x2457)
    Format : DVB Subtitle
    Codec ID : 6
    Duration : 3 min 4 s
    Delay relative to video : -360 ms
    Language : French

    Hidden Content:
    You must either reply or click 'Like' to see the hidden information contained here.
    Rar Pass : IboYLDz
     
    CELOBRAZiL and rhea like this.
  2. Loading...


  3. rhea

    rhea Well-Known Member

    Joined:
    Jan 6, 2014
    Messages:
    10,696
    Likes Received:
    1,997
    thank you so much! :)
     
  4. manhunter

    manhunter Active Member

    Joined:
    Jun 8, 2016
    Messages:
    931
    Likes Received:
    135
    THANK YOU!!!
     
  5. CELOBRAZiL

    CELOBRAZiL Well-Known Member Capper V . I . P. Donor

    Joined:
    Oct 2, 2013
    Messages:
    8,636
    Likes Received:
    30,859
    Thank you so much my friend! :)
     
    By.YLDz likes this.