DVD Sylver Forgiven (ver1)

Discussion in 'SD' started by AMARU, May 15, 2019.

  1. AMARU

    AMARU ¡Enhorabuena !, todo lo mejor.

    Joined:
    Oct 8, 2018
    Messages:
    317
    Likes Received:
    241
    [​IMG]

    [​IMG]

    Servidor:Google Drive

    Hidden Content:
    You must either reply or click 'Like' to see the hidden information contained here.
    Code:
    
    Format                          : MPEG-PS
    File size                      : 241 MiB
    Duration                       : 3mn 34s
    Overall bit rate               : 6 553 Kbps
    
    Video
    ID                             : 224 (0xE0)
    Format                         : MPEG Video
    Format version                 : Version 2
    Format profile                 : Main@Main
    Format settings, BVOP          : No
    Format settings, Matrix        : Default
    Format settings, GOP           : M=5, N=26
    Duration                       : 3mn 27s
    Bit rate                       : 6 000 Kbps
    Width                          : 720 pixels
    Height                         : 480 pixels
    Display aspect ratio           : 4:3
    Frame rate                     : 29.970 fps
    Standard                       : NTSC
    Color space                    : YUV
    Chroma subsampling             : 4:2:0
    Bit depth                      : 8 bits
    Scan type                      : Interlaced
    Scan order                     : Top Field First
    Compression mode               : Lossy
    Bits/(Pixel*Frame)             : 0.579
    Time code of first frame       : 00:22:23;00
    Time code source               : Group of pictures header
    Stream size                    : 147 MiB (91%)
    Color primaries                : BT.601 NTSC
    Transfer characteristics       : BT.601
    Matrix coefficients            : BT.601
    
    Audio
    ID                             : 189 (0xBD)-129 (0x81)
    Format                         : AC-3
    Format/Info                    : Audio Coding 3
    Mode extension                 : CM (complete main)
    Format settings, Endianness    : Big
    Muxing mode                    : DVD-Video
    Duration                       : 3mn 27s
    Bit rate mode                  : Constant
    Bit rate                       : 448 Kbps
    Channel(s)                     : 2 channels
    Channel positions              : Front: L R
    Sampling rate                  : 48.0 KHz
    Bit depth                      : 16 bits
    Compression mode               : Lossy
    Stream size                    : 11.1 MiB (7%)
     
  2. Loading...

    Similar Threads
    1. AMARU
      Replies:
      0
      Views:
      28
    2. AMARU
      Replies:
      0
      Views:
      25