Survivor - Eye Of The Tiger (MTVIdol-1080i-DD2.0)-Olgold

Discussion in 'MTV IDOL' started by Olgold, Aug 27, 2015.

  1. Olgold

    Olgold Well-Known Member Capper

    Joined:
    Aug 19, 2015
    Messages:
    436
    Likes Received:
    1,778
    [​IMG]
    General
    Format : MPEG-TS
    File size : 284 MiB
    Duration : 3mn 56s
    Overall bit rate mode : Variable
    Overall bit rate : 10.1 Mbps

    Video
    Format : AVC
    Format/Info : Advanced Video Codec
    Format profile : High@L4
    Format settings, CABAC : Yes
    Format settings, ReFrames : 4 frames
    Duration : 3mn 56s
    Bit rate : 9 322 Kbps
    Width : 1 920 pixels
    Height : 1 080 pixels
    Display aspect ratio : 16:9
    Frame rate : 25.000 fps
    Standard : Component
    Color space : YUV
    Chroma subsampling : 4:2:0
    Bit depth : 8 bits
    Scan type : MBAFF
    Scan order : Top Field First
    Bits/(Pixel*Frame) : 0.180
    Stream size : 263 MiB (92%)
    Color range : Limited

    Audio
    Format : AC-3
    Format/Info : Audio Coding 3
    Mode extension : CM (complete main)
    Format settings, Endianness : Big
    Duration : 3mn 56s
    Bit rate mode : Constant
    Bit rate : 256 Kbps
    Channel(s) : 2 channels
    Channel positions : Front: L R
    Sampling rate : 48.0 KHz
    Compression mode : Lossy
    Delay relative to video : 32ms
    Stream size : 7.22 MiB (3%)
    Language : French

    Hidden Content:
    You must reply before you can see the hidden data contained here.
     
  2. 777josem

    777josem ProRes 1080p LPCM

    Joined:
    Sep 1, 2014
    Messages:
    3,737
    Likes Received:
    3,275
    Thank you so much! Es un clásico de clásicos!
     
  3. rhea

    rhea Well-Known Member

    Joined:
    Jan 6, 2014
    Messages:
    7,663
    Likes Received:
    965
    thank you so much
     
  4. Godwinson

    Godwinson Active Member

    Joined:
    Oct 23, 2014
    Messages:
    396
    Likes Received:
    62
    Thanks
     
  5. wwepan

    wwepan Member

    Joined:
    Oct 21, 2015
    Messages:
    39
    Likes Received:
    0
    Thank You
     
  6. janito33

    janito33 Member

    Joined:
    Dec 10, 2014
    Messages:
    207
    Likes Received:
    3
    gracias, buen video
     
  7. MCTR

    MCTR Active Member

    Joined:
    Feb 23, 2014
    Messages:
    310
    Likes Received:
    47
    thank you so much
     
  8. alberto piper naro

    alberto piper naro BETOHACKER

    Joined:
    Jul 4, 2015
    Messages:
    596
    Likes Received:
    162
  9. kin

    kin Member

    Joined:
    Dec 2, 2015
    Messages:
    65
    Likes Received:
    2
    yeah tiger
     
  10. Flaxdevil

    Flaxdevil Member

    Joined:
    May 25, 2014
    Messages:
    285
    Likes Received:
    12
    Love this!
     
  11. Snorom6

    Snorom6 Well-Known Member V . I . P. Uploader

    Joined:
    Dec 17, 2015
    Messages:
    4,248
    Likes Received:
    5,698
  12. RUS22877773

    RUS22877773 Member

    Joined:
    Jan 7, 2016
    Messages:
    101
    Likes Received:
    1
    Thank you
     
  13. tsm897

    tsm897 Member

    Joined:
    Apr 16, 2014
    Messages:
    144
    Likes Received:
    5
    thank you
     
  14. TrendMusic

    TrendMusic Well-Known Member

    Joined:
    Oct 7, 2013
    Messages:
    1,609
    Likes Received:
    148
  15. Pavulon

    Pavulon Well-Known Member Donor

    Joined:
    Mar 22, 2016
    Messages:
    4,412
    Likes Received:
    834
    thanks
     
  16. tapions

    tapions Active Member

    Joined:
    Aug 30, 2016
    Messages:
    979
    Likes Received:
    85
    gracias
     
  17. CristianMatias

    CristianMatias HIGH DEFINITION

    Joined:
    Sep 17, 2016
    Messages:
    990
    Likes Received:
    37
  18. revilo18

    revilo18 Well-Known Member

    Joined:
    May 26, 2016
    Messages:
    2,021
    Likes Received:
    99
    THANKKK
     
  19. BillyTaylor

    BillyTaylor Member

    Joined:
    Nov 27, 2016
    Messages:
    122
    Likes Received:
    4
  20. brownbradpitt613

    brownbradpitt613 Member

    Joined:
    Sep 3, 2017
    Messages:
    681
    Likes Received:
    13
    t
    thanks!