Supergrass - Alright (Deluxe Music HD-1080i-DD2.0)-Olgold

Discussion in 'DELUXE MUSIC HD' started by Olgold, Aug 26, 2015.

  1. Olgold

    Olgold Well-Known Member Capper

    Joined:
    Aug 19, 2015
    Messages:
    436
    Likes Received:
    1,615
    [​IMG]
    General
    Format : MPEG-TS
    File size : 200 MiB
    Duration : 3mn 6s
    Overall bit rate mode : Variable
    Overall bit rate : 8 937 Kbps

    Video
    Format : AVC
    Format/Info : Advanced Video Codec
    Format profile : [email protected]
    Format settings, CABAC : Yes
    Format settings, ReFrames : 4 frames
    Duration : 3mn 5s
    Bit rate : 8 108 Kbps
    Width : 1 280 pixels
    Height : 1 080 pixels
    Display aspect ratio : 16:9
    Frame rate : 25.000 fps
    Standard : Component
    Color space : YUV
    Chroma subsampling : 4:2:0
    Bit depth : 8 bits
    Scan type : Interlaced
    Scan order : Top Field First
    Bits/(Pixel*Frame) : 0.235
    Stream size : 180 MiB (90%)
    Color range : Limited

    Audio
    Format : AC-3
    Format/Info : Audio Coding 3
    Mode extension : CM (complete main)
    Format settings, Endianness : Big
    Duration : 3mn 6s
    Bit rate mode : Constant
    Bit rate : 384 Kbps
    Channel(s) : 2 channels
    Channel positions : Front: L R
    Sampling rate : 48.0 KHz
    Compression mode : Lossy
    Delay relative to video : 115ms
    Stream size : 8.55 MiB (4%)
    Language : German
    Language, more info : Clean effects

    Hidden Content:
    You must reply before you can see the hidden data contained here.
     
    PietroFLAC, antonsi, rhea and 2 others like this.
  2. Crusha

    Crusha Well-Known Member Capper

    Joined:
    Oct 15, 2014
    Messages:
    2,350
    Likes Received:
    2,340
    thank you
     
  3. rhea

    rhea Well-Known Member

    Joined:
    Jan 6, 2014
    Messages:
    6,070
    Likes Received:
    464
    thank you so much
     
  4. Jorge Barrionuevo

    Jorge Barrionuevo Well-Known Member

    Joined:
    Jun 9, 2015
    Messages:
    1,067
    Likes Received:
    363
    GRACIAS!
     
  5. rencapmon

    rencapmon Member

    Joined:
    Jul 27, 2016
    Messages:
    156
    Likes Received:
    7
    thanks!!
     
  6. tapions

    tapions Active Member

    Joined:
    Aug 30, 2016
    Messages:
    870
    Likes Received:
    64
    gracias
     
    antonsi likes this.
  7. djcerebro

    djcerebro Member

    Joined:
    Jul 2, 2016
    Messages:
    68
    Likes Received:
    4
    excelente material. gracias!!
     
  8. CELOBRAZiL

    CELOBRAZiL Well-Known Member Capper V . I . P. Donor

    Joined:
    Oct 2, 2013
    Messages:
    2,909
    Likes Received:
    8,322
    Thank you so much! :)
     
  9. PietroFLAC

    PietroFLAC New Member

    Joined:
    Mar 24, 2017
    Messages:
    5
    Likes Received:
    0
    Great!!! Thank you!
    :D