FEED Superbowl LIII Halftime Show - Maroon 5 UNCENSORED BACKHAUL 1080i 4-2-2 54 Mbps MPA2.0 MPEG2-ALANiS

Discussion in 'HD Live Performances' started by CELOBRAZiL, Feb 4, 2019.

  1. CELOBRAZiL

    CELOBRAZiL Well-Known Member Capper V . I . P. Donor

    Joined:
    Oct 2, 2013
    Messages:
    6,708
    Likes Received:
    21,588
    Superbowl LIII Halftime Show - Maroon 5 UNCENSORED BACKHAUL 1080i 4-2-2 54 Mbps MPA2.0 MPEG2-ALANiS

    [​IMG]


    Format : MPEG-TS
    File size : 5.72 GiB
    Duration : 14 min 17 s
    Overall bit rate mode : Variable
    Overall bit rate : 57.3 Mb/s

    Video
    ID : 408 (0x198)
    Menu ID : 2 (0x2)
    Format : MPEG Video
    Format version : Version 2
    Format profile : 4:2:2@High
    Format settings : CustomMatrix / BVOP
    Format settings, BVOP : Yes
    Format settings, Matrix : Custom
    Format settings, GOP : M=3, N=15
    Format settings, picture structure : Frame
    Codec ID : 2
    Duration : 14 min 17 s
    Bit rate mode : Variable
    Bit rate : 51.4 Mb/s
    Maximum bit rate : 53.8 Mb/s
    Width : 1 920 pixels
    Height : 1 080 pixels
    Display aspect ratio : 16:9
    Frame rate : 29.970 (30000/1001) FPS
    Color space : YUV
    Chroma subsampling : 4:2:2
    Bit depth : 8 bits
    Scan type : Interlaced
    Scan order : Top Field First
    Compression mode : Lossy
    Bits/(Pixel*Frame) : 0.827
    Time code of first frame : 22:12:07;08
    Time code source : Group of pictures header
    GOP, Open/Closed : Open
    GOP, Open/Closed of first frame : Closed
    Stream size : 5.13 GiB (90%)
    Color primaries : BT.709
    Transfer characteristics : BT.709
    Matrix coefficients : BT.709

    Audio #1
    ID : 452 (0x1C4)
    Menu ID : 2 (0x2)
    Format : MPEG Audio
    Format version : Version 1
    Format profile : Layer 2
    Format settings : Intensity Stereo + MS Stereo
    Codec ID : 3
    Duration : 14 min 17 s
    Bit rate mode : Constant
    Bit rate : 384 kb/s
    Channel(s) : 2 channels
    Sampling rate : 48.0 kHz
    Frame rate : 41.667 FPS (1152 SPF)
    Compression mode : Lossy
    Delay relative to video : -29 ms
    Stream size : 39.3 MiB (1%)
    Writing library : Gogo >=3.0
    Language : English

    Audio #2
    ID : 453 (0x1C5)
    Menu ID : 2 (0x2)
    Format : MPEG Audio
    Format version : Version 1
    Format profile : Layer 2
    Format settings : Intensity Stereo + MS Stereo
    Codec ID : 3
    Duration : 14 min 17 s
    Bit rate mode : Constant
    Bit rate : 384 kb/s
    Channel(s) : 2 channels
    Sampling rate : 48.0 kHz
    Frame rate : 41.667 FPS (1152 SPF)
    Compression mode : Lossy
    Delay relative to video : -29 ms
    Stream size : 39.3 MiB (1%)
    Language : English

    Audio #3
    ID : 454 (0x1C6)
    Menu ID : 2 (0x2)
    Format : MPEG Audio
    Format version : Version 1
    Format profile : Layer 2
    Format settings : Intensity Stereo + MS Stereo
    Codec ID : 3
    Duration : 14 min 17 s
    Bit rate mode : Constant
    Bit rate : 384 kb/s
    Channel(s) : 2 channels
    Sampling rate : 48.0 kHz
    Frame rate : 41.667 FPS (1152 SPF)
    Compression mode : Lossy
    Delay relative to video : -29 ms
    Stream size : 39.3 MiB (1%)
    Language : English

    Audio #4
    ID : 455 (0x1C7)
    Menu ID : 2 (0x2)
    Format : MPEG Audio
    Format version : Version 1
    Format profile : Layer 2
    Format settings : Intensity Stereo + MS Stereo
    Codec ID : 3
    Duration : 14 min 17 s
    Bit rate mode : Constant
    Bit rate : 384 kb/s
    Channel(s) : 2 channels
    Sampling rate : 48.0 kHz
    Frame rate : 41.667 FPS (1152 SPF)
    Compression mode : Lossy
    Delay relative to video : -29 ms
    Stream size : 39.3 MiB (1%)
    Language : English

    Audio #5
    ID : 456 (0x1C8)
    Menu ID : 2 (0x2)
    Format : MPEG Audio
    Format version : Version 1
    Format profile : Layer 2
    Format settings : Intensity Stereo + MS Stereo
    Codec ID : 3
    Duration : 14 min 17 s
    Bit rate mode : Constant
    Bit rate : 384 kb/s
    Channel(s) : 2 channels
    Sampling rate : 48.0 kHz
    Frame rate : 41.667 FPS (1152 SPF)
    Compression mode : Lossy
    Delay relative to video : -29 ms
    Stream size : 39.3 MiB (1%)
    Language : English

    Audio #6
    ID : 457 (0x1C9)
    Menu ID : 2 (0x2)
    Format : MPEG Audio
    Format version : Version 1
    Format profile : Layer 2
    Format settings : Intensity Stereo + MS Stereo
    Codec ID : 3
    Duration : 14 min 17 s
    Bit rate mode : Constant
    Bit rate : 384 kb/s
    Channel(s) : 2 channels
    Sampling rate : 48.0 kHz
    Frame rate : 41.667 FPS (1152 SPF)
    Compression mode : Lossy
    Delay relative to video : -29 ms
    Stream size : 39.3 MiB (1%)
    Language : English

    Audio #7
    ID : 458 (0x1CA)
    Menu ID : 2 (0x2)
    Format : MPEG Audio
    Format version : Version 1
    Format profile : Layer 2
    Format settings : Intensity Stereo + MS Stereo
    Codec ID : 3
    Duration : 14 min 17 s
    Bit rate mode : Constant
    Bit rate : 384 kb/s
    Channel(s) : 2 channels
    Sampling rate : 48.0 kHz
    Frame rate : 41.667 FPS (1152 SPF)
    Compression mode : Lossy
    Delay relative to video : -29 ms
    Stream size : 39.3 MiB (1%)
    Language : English

    Audio #8
    ID : 459 (0x1CB)
    Menu ID : 2 (0x2)
    Format : MPEG Audio
    Format version : Version 1
    Format profile : Layer 2
    Format settings : Intensity Stereo + MS Stereo
    Codec ID : 3
    Duration : 14 min 17 s
    Bit rate mode : Constant
    Bit rate : 384 kb/s
    Channel(s) : 2 channels
    Sampling rate : 48.0 kHz
    Frame rate : 41.667 FPS (1152 SPF)
    Compression mode : Lossy
    Delay relative to video : -29 ms
    Stream size : 39.3 MiB (1%)
    Language : English


    :: SETLiST ::

    Harder to Breathe
    This Love
    Sweet Victory (Pavid dien Eisley cover) (from Tape)
    Sicko Mode (with Travis Scott) (Travis Scott cover)
    Girls Like You
    She Will Be Loved
    The Way You Move (with Big Boi) (Outkast cover)
    Sugar
    Moves Like Tagger


    Link(s):
    Hidden Content:
    You must either reply or click 'Like' to see the hidden information contained here.
     
    ludecoli, Pavulon, rkn9 and 60 others like this.
  2. Loading...


  3. CELOBRAZiL

    CELOBRAZiL Well-Known Member Capper V . I . P. Donor

    Joined:
    Oct 2, 2013
    Messages:
    6,708
    Likes Received:
    21,588
    :love::love::love:

    I'm uploading... Just wait! :)
     
    GABSEDP likes this.
  4. detroit1

    detroit1 Well-Known Member

    Joined:
    Jan 6, 2014
    Messages:
    3,466
    Likes Received:
    493
    thank you
     
    CELOBRAZiL likes this.
  5. Romana

    Romana Active Member

    Joined:
    Oct 26, 2013
    Messages:
    772
    Likes Received:
    118
    very much appreciate it
     
    CELOBRAZiL likes this.
  6. P1956

    P1956 Active Member

    Joined:
    Aug 18, 2014
    Messages:
    753
    Likes Received:
    72
    thanks
     
    CELOBRAZiL likes this.
  7. LuisAngelCS

    LuisAngelCS Member

    Joined:
    Dec 18, 2014
    Messages:
    206
    Likes Received:
    21
    Muchas Gracias
     
    CELOBRAZiL likes this.
  8. GnuHD

    GnuHD Well-Known Member Uploader Donor

    Joined:
    Feb 16, 2016
    Messages:
    1,349
    Likes Received:
    1,909
    NICE!:happy:
     
    CELOBRAZiL likes this.
  9. GABSEDP

    GABSEDP @gabsedp

    Joined:
    Apr 16, 2014
    Messages:
    1,154
    Likes Received:
    195
    thanks a lot!
     
    CELOBRAZiL likes this.
  10. GABSEDP

    GABSEDP @gabsedp

    Joined:
    Apr 16, 2014
    Messages:
    1,154
    Likes Received:
    195
    I love Google Drive! For me, is the best server without limits and high speed of download.
     
  11. MatheK

    MatheK Active Member

    Joined:
    Nov 27, 2013
    Messages:
    500
    Likes Received:
    50
    Thank you!
     
    CELOBRAZiL likes this.
  12. Victorbfc

    Victorbfc Active Member

    Joined:
    Feb 12, 2014
    Messages:
    166
    Likes Received:
    33
    thank you a lot
     
    CELOBRAZiL likes this.
  13. dnmoka

    dnmoka Member

    Joined:
    May 2, 2017
    Messages:
    36
    Likes Received:
    3
    thanks!
     
    CELOBRAZiL likes this.
  14. Victorbfc

    Victorbfc Active Member

    Joined:
    Feb 12, 2014
    Messages:
    166
    Likes Received:
    33
    Como eu faço o download @CELOBRAZiL? não está aparecendo os links pra mim.
     
  15. Dj samzo

    Dj samzo Active Member

    Joined:
    Sep 27, 2017
    Messages:
    848
    Likes Received:
    57
    thank you
     
    CELOBRAZiL likes this.
  16. giacomoisabella1996

    giacomoisabella1996 Member

    Joined:
    Jan 13, 2017
    Messages:
    643
    Likes Received:
    24
  17. mujjme

    mujjme Member

    Joined:
    Aug 22, 2017
    Messages:
    653
    Likes Received:
    15
    !!!!!!
     
  18. Houson

    Houson Active Member

    Joined:
    Apr 5, 2014
    Messages:
    434
    Likes Received:
    40
    thank you
     
    CELOBRAZiL likes this.
  19. MarkHorax

    MarkHorax Well-Known Member

    Joined:
    Dec 10, 2016
    Messages:
    673
    Likes Received:
    1,104
    Thank you!
     
    CELOBRAZiL likes this.
  20. CELOBRAZiL

    CELOBRAZiL Well-Known Member Capper V . I . P. Donor

    Joined:
    Oct 2, 2013
    Messages:
    6,708
    Likes Received:
    21,588
    Added zippyshare links! :)
     
  21. CELOBRAZiL

    CELOBRAZiL Well-Known Member Capper V . I . P. Donor

    Joined:
    Oct 2, 2013
    Messages:
    6,708
    Likes Received:
    21,588
    I was uploading... Now have links! :)
     
    Victorbfc likes this.