Sum 41 - In Too Deep (MTVPulse-1080i-DD2.0)-Olgold

Discussion in 'MTV PULSE HD' started by Olgold, Aug 27, 2015.

  1. Olgold

    Olgold Well-Known Member Capper

    Joined:
    Aug 19, 2015
    Messages:
    436
    Likes Received:
    1,677
    [​IMG]
    General
    Format : MPEG-TS
    File size : 257 MiB
    Duration : 3mn 40s
    Overall bit rate mode : Variable
    Overall bit rate : 9 776 Kbps
    Maximum Overall bit rate : 35.5 Mbps

    Video
    Format : AVC
    Format/Info : Advanced Video Codec
    Format profile : [email protected]
    Format settings, CABAC : Yes
    Format settings, ReFrames : 4 frames
    Duration : 3mn 39s
    Bit rate mode : Variable
    Bit rate : 9 034 Kbps
    Maximum bit rate : 40.0 Mbps
    Width : 1 920 pixels
    Height : 1 080 pixels
    Display aspect ratio : 16:9
    Frame rate : 25.000 fps
    Standard : Component
    Color space : YUV
    Chroma subsampling : 4:2:0
    Bit depth : 8 bits
    Scan type : MBAFF
    Scan order : Top Field First
    Bits/(Pixel*Frame) : 0.174
    Stream size : 236 MiB (92%)
    Color range : Limited

    Audio
    Format : AC-3
    Format/Info : Audio Coding 3
    Mode extension : CM (complete main)
    Format settings, Endianness : Big
    Codec ID : 129
    Duration : 3mn 39s
    Bit rate mode : Constant
    Bit rate : 256 Kbps
    Channel(s) : 2 channels
    Channel positions : Front: L R
    Sampling rate : 48.0 KHz
    Compression mode : Lossy
    Delay relative to video : -95ms
    Stream size : 6.71 MiB (3%)
    Language : French

    Hidden Content:
    You must reply before you can see the hidden data contained here.
     
    betoxky, rhea, 777josem and 1 other person like this.
  2. 777josem

    777josem ProRes 1080p LPCM V . I . P. Uploader

    Joined:
    Sep 1, 2014
    Messages:
    3,584
    Likes Received:
    2,753
    :DMe encanta este vídeo, no sabia como se llamaba. Thank you so much!
     
  3. rhea

    rhea Well-Known Member

    Joined:
    Jan 6, 2014
    Messages:
    6,638
    Likes Received:
    683
    thank you so much
     
  4. Flaxdevil

    Flaxdevil Member

    Joined:
    May 25, 2014
    Messages:
    285
    Likes Received:
    10
    gracias!
     
  5. TrendMusic

    TrendMusic Well-Known Member

    Joined:
    Oct 7, 2013
    Messages:
    1,348
    Likes Received:
    93
  6. betoxky

    betoxky Active Member

    Joined:
    Feb 3, 2014
    Messages:
    194
    Likes Received:
    214
    thank you so much
     
  7. tapions

    tapions Active Member

    Joined:
    Aug 30, 2016
    Messages:
    898
    Likes Received:
    70
    gracias
     
  8. misscoak

    misscoak Member

    Joined:
    Dec 22, 2016
    Messages:
    606
    Likes Received:
    4
    Thanks
     
  9. valtersc

    valtersc Active Member

    Joined:
    Nov 19, 2014
    Messages:
    256
    Likes Received:
    168
    thank you
     
  10. The-Cat-Whose-Name

    The-Cat-Whose-Name Member

    Joined:
    Aug 3, 2017
    Messages:
    131
    Likes Received:
    4
    OMG Awsome Thaaaank You!!!!!
     
  11. LuisGuiRox

    LuisGuiRox New Member

    Joined:
    Oct 14, 2017
    Messages:
    5
    Likes Received:
    0
    THANKS