Stromae - Alors on Danse (Deluxe Music HD-1080i-DD2.0)-Olgold

Discussion in 'DELUXE MUSIC HD' started by Olgold, Aug 20, 2015.

  1. Olgold

    Olgold Well-Known Member Capper

    Joined:
    Aug 19, 2015
    Messages:
    435
    Likes Received:
    1,500
    [​IMG]
    General
    Format : MPEG-TS
    File size : 178 MiB
    Duration : 3mn 52s
    Overall bit rate mode : Variable
    Overall bit rate : 6 410 Kbps

    Video
    Format : AVC
    Format/Info : Advanced Video Codec
    Format profile : [email protected]
    Format settings, CABAC : Yes
    Format settings, ReFrames : 4 frames
    Duration : 3mn 51s
    Bit rate : 5 705 Kbps
    Width : 1 280 pixels
    Height : 1 080 pixels
    Display aspect ratio : 16:9
    Frame rate : 25.000 fps
    Standard : Component
    Color space : YUV
    Chroma subsampling : 4:2:0
    Bit depth : 8 bits
    Scan type : Interlaced
    Scan order : Top Field First
    Bits/(Pixel*Frame) : 0.165
    Stream size : 157 MiB (88%)
    Color range : Limited

    Audio
    Format : AC-3
    Format/Info : Audio Coding 3
    Mode extension : CM (complete main)
    Format settings, Endianness : Big
    Duration : 3mn 52s
    Bit rate mode : Constant
    Bit rate : 384 Kbps
    Channel(s) : 2 channels
    Channel positions : Front: L R
    Sampling rate : 48.0 KHz
    Compression mode : Lossy
    Delay relative to video : 234ms
    Stream size : 10.6 MiB (6%)
    Language : German
    Hidden Content:
    You must reply before you can see the hidden data contained here.
     
    ImLoser, Big_John, BetaKsi and 4 others like this.
  2. Dreamer

    Dreamer Lana Del Rey ♥ Capper Uploader

    Joined:
    Dec 4, 2014
    Messages:
    2,482
    Likes Received:
    2,648
    Thank you
     
  3. rhea

    rhea Well-Known Member

    Joined:
    Jan 6, 2014
    Messages:
    5,648
    Likes Received:
    365
    thank you so much
     
  4. Crusha

    Crusha Well-Known Member Capper

    Joined:
    Oct 15, 2014
    Messages:
    2,350
    Likes Received:
    2,251
    thank you
     
  5. BetaKsi

    BetaKsi Well-Known Member

    Joined:
    Oct 18, 2015
    Messages:
    828
    Likes Received:
    327
    Thank you
     
  6. Bruno

    Bruno Well-Known Member

    Joined:
    Nov 3, 2013
    Messages:
    1,237
    Likes Received:
    80
    great song thx
     
  7. Regis

    Regis Well-Known Member

    Joined:
    Jul 14, 2015
    Messages:
    1,022
    Likes Received:
    25
    Thank you
     
  8. RUS22877773

    RUS22877773 Member

    Joined:
    Jan 7, 2016
    Messages:
    101
    Likes Received:
    1
    Thank you
     
  9. dapape

    dapape Member

    Joined:
    Jun 9, 2014
    Messages:
    134
    Likes Received:
    1
    thank you
     
  10. yonita

    yonita Active Member

    Joined:
    Mar 7, 2016
    Messages:
    398
    Likes Received:
    38
    Stromaee!!!!
     
  11. DEJOTA

    DEJOTA Member

    Joined:
    Nov 25, 2015
    Messages:
    40
    Likes Received:
    0
    very thanks
     
  12. Pavulon

    Pavulon Well-Known Member

    Joined:
    Mar 22, 2016
    Messages:
    1,599
    Likes Received:
    94
    thanks
     
  13. 1asad1

    1asad1 Member

    Joined:
    Apr 23, 2016
    Messages:
    114
    Likes Received:
    10
    thanks!
     
  14. CristianMatias

    CristianMatias Member

    Joined:
    Sep 17, 2016
    Messages:
    580
    Likes Received:
    17
  15. Big_John

    Big_John New Member

    Joined:
    Nov 30, 2016
    Messages:
    17
    Likes Received:
    0
    Thanks
     
  16. jms_salta

    jms_salta Member

    Joined:
    Nov 9, 2014
    Messages:
    33
    Likes Received:
    0
    FRANCIA 2017[​IMG]
    General
    Format : MPEG-TS
    File size : 178 MiB
    Duration : 3mn 52s
    Overall bit rate mode : Variable
    Overall bit rate : 6 410 Kbps

    Video
    Format : AVC
    Format/Info : Advanced Video Codec
    Format profile : [email protected]
    Format settings, CABAC : Yes
    Format settings, ReFrames : 4 frames
    Duration : 3mn 51s
    Bit rate : 5 705 Kbps
    Width : 1 280 pixels
    Height : 1 080 pixels
    Display aspect ratio : 16:9
    Frame rate : 25.000 fps
    Standard : Component
    Color space : YUV
    Chroma subsampling : 4:2:0
    Bit depth : 8 bits
    Scan type : Interlaced
    Scan order : Top Field First
    Bits/(Pixel*Frame) : 0.165
    Stream size : 157 MiB (88%)
    Color range : Limited

    Audio
    Format : AC-3
    Format/Info : Audio Coding 3
    Mode extension : CM (complete main)
    Format settings, Endianness : Big
    Duration : 3mn 52s
    Bit rate mode : Constant
    Bit rate : 384 Kbps
    Channel(s) : 2 channels
    Channel positions : Front: L R
    Sampling rate : 48.0 KHz
    Compression mode : Lossy
    Delay relative to video : 234ms
    Stream size : 10.6 MiB (6%)
    Language : German
    ***Hidden content cannot be quoted.***
    [/QUOTE]
     
  17. ImLoser

    ImLoser Active Member

    Joined:
    May 12, 2016
    Messages:
    888
    Likes Received:
    38
    thanks