Stromae - Alors on Danse (Deluxe Music HD-1080i-DD2.0)-Olgold

Discussion in 'DELUXE MUSIC HD' started by Olgold, Aug 20, 2015.

  1. Olgold

    Olgold Well-Known Member Capper

    Joined:
    Aug 19, 2015
    Messages:
    436
    Likes Received:
    1,709
    [​IMG]
    General
    Format : MPEG-TS
    File size : 178 MiB
    Duration : 3mn 52s
    Overall bit rate mode : Variable
    Overall bit rate : 6 410 Kbps

    Video
    Format : AVC
    Format/Info : Advanced Video Codec
    Format profile : [email protected]
    Format settings, CABAC : Yes
    Format settings, ReFrames : 4 frames
    Duration : 3mn 51s
    Bit rate : 5 705 Kbps
    Width : 1 280 pixels
    Height : 1 080 pixels
    Display aspect ratio : 16:9
    Frame rate : 25.000 fps
    Standard : Component
    Color space : YUV
    Chroma subsampling : 4:2:0
    Bit depth : 8 bits
    Scan type : Interlaced
    Scan order : Top Field First
    Bits/(Pixel*Frame) : 0.165
    Stream size : 157 MiB (88%)
    Color range : Limited

    Audio
    Format : AC-3
    Format/Info : Audio Coding 3
    Mode extension : CM (complete main)
    Format settings, Endianness : Big
    Duration : 3mn 52s
    Bit rate mode : Constant
    Bit rate : 384 Kbps
    Channel(s) : 2 channels
    Channel positions : Front: L R
    Sampling rate : 48.0 KHz
    Compression mode : Lossy
    Delay relative to video : 234ms
    Stream size : 10.6 MiB (6%)
    Language : German
    Hidden Content:
    You must reply before you can see the hidden data contained here.
     
  2. Dreamer

    Dreamer Lana Del Rey ♥ Halsey Capper V . I . P. Uploader

    Joined:
    Dec 4, 2014
    Messages:
    2,887
    Likes Received:
    4,414
    Thank you
     
  3. rhea

    rhea Well-Known Member

    Joined:
    Jan 6, 2014
    Messages:
    6,967
    Likes Received:
    758
    thank you so much
     
  4. Crusha

    Crusha Well-Known Member Capper V . I . P.

    Joined:
    Oct 15, 2014
    Messages:
    2,358
    Likes Received:
    2,652
    thank you
     
  5. BetaKsi

    BetaKsi Well-Known Member

    Joined:
    Oct 18, 2015
    Messages:
    1,266
    Likes Received:
    411
    Thank you
     
  6. Bruno

    Bruno Well-Known Member

    Joined:
    Nov 3, 2013
    Messages:
    1,508
    Likes Received:
    116
    great song thx
     
  7. Regis

    Regis Well-Known Member

    Joined:
    Jul 14, 2015
    Messages:
    1,139
    Likes Received:
    35
    Thank you
     
  8. RUS22877773

    RUS22877773 Member

    Joined:
    Jan 7, 2016
    Messages:
    101
    Likes Received:
    1
    Thank you
     
  9. dapape

    dapape Member

    Joined:
    Jun 9, 2014
    Messages:
    134
    Likes Received:
    1
    thank you
     
  10. yonita

    yonita Active Member

    Joined:
    Mar 7, 2016
    Messages:
    460
    Likes Received:
    58
    Stromaee!!!!
     
  11. DEJOTA

    DEJOTA Member

    Joined:
    Nov 25, 2015
    Messages:
    46
    Likes Received:
    0
    very thanks
     
  12. Pavulon

    Pavulon Well-Known Member

    Joined:
    Mar 22, 2016
    Messages:
    3,479
    Likes Received:
    408
    thanks
     
  13. 1asad1

    1asad1 Member

    Joined:
    Apr 23, 2016
    Messages:
    156
    Likes Received:
    11
    thanks!
     
  14. CristianMatias

    CristianMatias HIGH DEFINITION

    Joined:
    Sep 17, 2016
    Messages:
    828
    Likes Received:
    21
  15. Big_John

    Big_John New Member

    Joined:
    Nov 30, 2016
    Messages:
    17
    Likes Received:
    0
    Thanks
     
  16. jms_salta

    jms_salta Member

    Joined:
    Nov 9, 2014
    Messages:
    33
    Likes Received:
    0
    FRANCIA 2017[​IMG]
    General
    Format : MPEG-TS
    File size : 178 MiB
    Duration : 3mn 52s
    Overall bit rate mode : Variable
    Overall bit rate : 6 410 Kbps

    Video
    Format : AVC
    Format/Info : Advanced Video Codec
    Format profile : [email protected]
    Format settings, CABAC : Yes
    Format settings, ReFrames : 4 frames
    Duration : 3mn 51s
    Bit rate : 5 705 Kbps
    Width : 1 280 pixels
    Height : 1 080 pixels
    Display aspect ratio : 16:9
    Frame rate : 25.000 fps
    Standard : Component
    Color space : YUV
    Chroma subsampling : 4:2:0
    Bit depth : 8 bits
    Scan type : Interlaced
    Scan order : Top Field First
    Bits/(Pixel*Frame) : 0.165
    Stream size : 157 MiB (88%)
    Color range : Limited

    Audio
    Format : AC-3
    Format/Info : Audio Coding 3
    Mode extension : CM (complete main)
    Format settings, Endianness : Big
    Duration : 3mn 52s
    Bit rate mode : Constant
    Bit rate : 384 Kbps
    Channel(s) : 2 channels
    Channel positions : Front: L R
    Sampling rate : 48.0 KHz
    Compression mode : Lossy
    Delay relative to video : 234ms
    Stream size : 10.6 MiB (6%)
    Language : German
    ***Hidden content cannot be quoted.***
    [/QUOTE]
     
  17. ImLoser

    ImLoser Well-Known Member

    Joined:
    May 12, 2016
    Messages:
    1,688
    Likes Received:
    54
    thanks
     
  18. thepasco

    thepasco Member

    Joined:
    May 26, 2017
    Messages:
    79
    Likes Received:
    2
    mmmmmm
     
  19. Irfan jack

    Irfan jack New Member

    Joined:
    Jul 29, 2017
    Messages:
    10
    Likes Received:
    0
    Thank you
     
  20. Irfan jack

    Irfan jack New Member

    Joined:
    Jul 29, 2017
    Messages:
    10
    Likes Received:
    0
    I like it