Stromae - Alors on Danse (Deluxe Music HD-1080i-DD2.0)-Olgold

Discussion in 'DELUXE MUSIC HD' started by Olgold, Aug 20, 2015.

  1. Olgold

    Olgold Well-Known Member Capper

    Joined:
    Aug 19, 2015
    Messages:
    386
    Likes Received:
    1,309
    [​IMG]
    General
    Format : MPEG-TS
    File size : 178 MiB
    Duration : 3mn 52s
    Overall bit rate mode : Variable
    Overall bit rate : 6 410 Kbps

    Video
    Format : AVC
    Format/Info : Advanced Video Codec
    Format profile : High@L4
    Format settings, CABAC : Yes
    Format settings, ReFrames : 4 frames
    Duration : 3mn 51s
    Bit rate : 5 705 Kbps
    Width : 1 280 pixels
    Height : 1 080 pixels
    Display aspect ratio : 16:9
    Frame rate : 25.000 fps
    Standard : Component
    Color space : YUV
    Chroma subsampling : 4:2:0
    Bit depth : 8 bits
    Scan type : Interlaced
    Scan order : Top Field First
    Bits/(Pixel*Frame) : 0.165
    Stream size : 157 MiB (88%)
    Color range : Limited

    Audio
    Format : AC-3
    Format/Info : Audio Coding 3
    Mode extension : CM (complete main)
    Format settings, Endianness : Big
    Duration : 3mn 52s
    Bit rate mode : Constant
    Bit rate : 384 Kbps
    Channel(s) : 2 channels
    Channel positions : Front: L R
    Sampling rate : 48.0 KHz
    Compression mode : Lossy
    Delay relative to video : 234ms
    Stream size : 10.6 MiB (6%)
    Language : German
    Hidden Content:
    You must reply before you can see the hidden data contained here.
     
    Big_John, BetaKsi, rhea and 3 others like this.
  2. Dreamer

    Dreamer ♫ It's Britney Bitch ♫ Capper Uploader

    Joined:
    Dec 4, 2014
    Messages:
    2,209
    Likes Received:
    1,924
    Thank you
     
  3. rhea

    rhea Well-Known Member

    Joined:
    Jan 6, 2014
    Messages:
    5,258
    Likes Received:
    253
    thank you so much
     
  4. Crusha

    Crusha Well-Known Member Capper

    Joined:
    Oct 15, 2014
    Messages:
    2,350
    Likes Received:
    2,134
    thank you
     
  5. BetaKsi

    BetaKsi Well-Known Member

    Joined:
    Oct 18, 2015
    Messages:
    702
    Likes Received:
    287
    Thank you
     
  6. Bruno

    Bruno Well-Known Member

    Joined:
    Nov 3, 2013
    Messages:
    1,163
    Likes Received:
    74
    great song thx
     
  7. Regis

    Regis Active Member

    Joined:
    Jul 14, 2015
    Messages:
    997
    Likes Received:
    25
    Thank you
     
  8. RUS22877773

    RUS22877773 Member

    Joined:
    Jan 7, 2016
    Messages:
    101
    Likes Received:
    0
    Thank you
     
  9. dapape

    dapape Member

    Joined:
    Jun 9, 2014
    Messages:
    134
    Likes Received:
    1
    thank you
     
  10. yonita

    yonita Member

    Joined:
    Mar 7, 2016
    Messages:
    350
    Likes Received:
    10
    Stromaee!!!!
     
  11. DEJOTA

    DEJOTA Member

    Joined:
    Nov 25, 2015
    Messages:
    40
    Likes Received:
    0
    very thanks
     
  12. Pavulon

    Pavulon Active Member

    Joined:
    Mar 22, 2016
    Messages:
    1,040
    Likes Received:
    11
    thanks
     
  13. 1asad1

    1asad1 Member

    Joined:
    Apr 23, 2016
    Messages:
    98
    Likes Received:
    8
    thanks!
     
  14. CristianMatias

    CristianMatias Member

    Joined:
    Sep 17, 2016
    Messages:
    541
    Likes Received:
    17
  15. Big_John

    Big_John New Member

    Joined:
    Nov 30, 2016
    Messages:
    13
    Likes Received:
    0
    Thanks
     
  16. jms_salta

    jms_salta Member

    Joined:
    Nov 9, 2014
    Messages:
    33
    Likes Received:
    0
    FRANCIA 2017[​IMG]
    General
    Format : MPEG-TS
    File size : 178 MiB
    Duration : 3mn 52s
    Overall bit rate mode : Variable
    Overall bit rate : 6 410 Kbps

    Video
    Format : AVC
    Format/Info : Advanced Video Codec
    Format profile : High@L4
    Format settings, CABAC : Yes
    Format settings, ReFrames : 4 frames
    Duration : 3mn 51s
    Bit rate : 5 705 Kbps
    Width : 1 280 pixels
    Height : 1 080 pixels
    Display aspect ratio : 16:9
    Frame rate : 25.000 fps
    Standard : Component
    Color space : YUV
    Chroma subsampling : 4:2:0
    Bit depth : 8 bits
    Scan type : Interlaced
    Scan order : Top Field First
    Bits/(Pixel*Frame) : 0.165
    Stream size : 157 MiB (88%)
    Color range : Limited

    Audio
    Format : AC-3
    Format/Info : Audio Coding 3
    Mode extension : CM (complete main)
    Format settings, Endianness : Big
    Duration : 3mn 52s
    Bit rate mode : Constant
    Bit rate : 384 Kbps
    Channel(s) : 2 channels
    Channel positions : Front: L R
    Sampling rate : 48.0 KHz
    Compression mode : Lossy
    Delay relative to video : 234ms
    Stream size : 10.6 MiB (6%)
    Language : German
    ***Hidden content cannot be quoted.***
    [/QUOTE]