Stevie Nicks and Lady Antebellum - CMT Crossroads (Extended Palladia Airing) 1080i TrollHD

Discussion in 'Trash Bin' started by Darkangel, May 23, 2014.

  1. Darkangel

    Darkangel Super Moderator Staff Member Super Moderator Capper V . I . P.

    Joined:
    Oct 7, 2013
    Messages:
    2,831
    Likes Received:
    27,497
    [​IMG]
    Code:
    Complete name  : CMT Crossroads - Stevie Nicks and Lady Antebellum (Extended Palladia Airing) 1080i HDTV DD5.1 MPEG2-TrollHD.ts
    Format  : MPEG-TS
    File size  : 5.48 GiB
    Duration  : 58mn 58s
    Overall bit rate mode  : Variable
    Overall bit rate  : 13.3 Mbps
    Law rating  : TV-PG
    
    Video
    ID  : 542 (0x21E)
    Menu ID  : 1 (0x1)
    Format  : MPEG Video
    Format version  : Version 2
    Format profile  : Main@High
    Format settings, BVOP  : No
    Format settings, Matrix  : Custom
    Format settings, GOP  : Variable
    Codec ID  : 2
    Duration  : 58mn 58s
    Bit rate mode  : Variable
    Bit rate  : 12.1 Mbps
    Maximum bit rate  : 18.0 Mbps
    Width  : 1 920 pixels
    Height  : 1 080 pixels
    Display aspect ratio  : 16:9
    Frame rate  : 29.970 fps
    Color space  : YUV
    Chroma subsampling  : 4:2:0
    Bit depth  : 8 bits
    Scan type  : Interlaced
    Scan order  : Top Field First
    Compression mode  : Lossy
    Bits/(Pixel*Frame)  : 0.194
    Time code of first frame  : 00:00:00;00
    Time code source  : Group of pictures header
    Stream size  : 4.97 GiB (91%)
    
    Audio #1
    ID  : 540 (0x21C)
    Menu ID  : 1 (0x1)
    Format  : AC-3
    Format/Info  : Audio Coding 3
    Mode extension  : CM (complete main)
    Format settings, Endianness  : Big
    Codec ID  : 129
    Duration  : 58mn 58s
    Bit rate mode  : Constant
    Bit rate  : 384 Kbps
    Channel(s)  : 6 channels
    Channel positions  : Front: L C R, Side: L R, LFE
    Sampling rate  : 48.0 KHz
    Bit depth  : 16 bits
    Compression mode  : Lossy
    Delay relative to video  : 29ms
    Stream size  : 162 MiB (3%)
    Language  : English
    
    Audio #2
    ID  : 541 (0x21D)
    Menu ID  : 1 (0x1)
    Format  : AC-3
    Format/Info  : Audio Coding 3
    Mode extension  : CM (complete main)
    Format settings, Endianness  : Big
    Codec ID  : 129
    Duration  : 58mn 58s
    Bit rate mode  : Constant
    Bit rate  : 192 Kbps
    Channel(s)  : 2 channels
    Channel positions  : Front: L R
    Sampling rate  : 48.0 KHz
    Bit depth  : 16 bits
    Compression mode  : Lossy
    Delay relative to video  : 29ms
    Stream size  : 81.0 MiB (1%)
    Language  : English
    
    Setlist:
    - Edge of Seventeen
    - Love Don't Live Here
    - Need You Now
    - Landslide
    - Golden
    - Stop Draggin' My Heart Around
    - Gold Dust Woman
    - Just A Kiss
    - Cold As Stone
    - Rhiannon

    Hidden Content:
    You must either reply or click 'Like' to see the hidden information contained here.
     
  2. Loading...


  3. multimediafm

    multimediafm Well-Known Member Donor

    Joined:
    Mar 27, 2014
    Messages:
    15,575
    Likes Received:
    1,427
  4. brici14

    brici14 Member

    Joined:
    Dec 9, 2013
    Messages:
    182
    Likes Received:
    1
    thank you
     
  5. Mad_Groove

    Mad_Groove Member Donor

    Joined:
    Dec 15, 2013
    Messages:
    148
    Likes Received:
    5
    Thank you so much!
     
  6. 007charlie

    007charlie Member

    Joined:
    Jun 18, 2014
    Messages:
    73
    Likes Received:
    0
  7. blacksiskin

    blacksiskin New Member

    Joined:
    May 25, 2015
    Messages:
    23
    Likes Received:
    0
    great,thanks!!!
     
  8. kineticsolace

    kineticsolace Member

    Joined:
    Dec 18, 2015
    Messages:
    184
    Likes Received:
    7
    Is there anyway of re-uploading this, please?
     
    Josue Carminatti likes this.
  9. Josue Carminatti

    Josue Carminatti Member

    Joined:
    Jul 19, 2015
    Messages:
    491
    Likes Received:
    17
    Is there anyway of re-uploading this, please?
     
  10. joshey87

    joshey87 New Member

    Joined:
    Mar 31, 2017
    Messages:
    6
    Likes Received:
    0
    Thanks
     
  11. sunset boulevard

    sunset boulevard New Member

    Joined:
    Apr 18, 2017
    Messages:
    26
    Likes Received:
    1
    great, thank you!
     
  12. EGC

    EGC Member

    Joined:
    Nov 30, 2018
    Messages:
    64
    Likes Received:
    2
    hope it works
     
  13. rodrigoribeiroguimaraes

    rodrigoribeiroguimaraes Active Member

    Joined:
    Jan 13, 2017
    Messages:
    640
    Likes Received:
    74
    thanks