DVD Steps - Words Are Not Enough (Rockamerica) [VOB]

Discussion in 'SD' started by claudio1301, May 1, 2020.

  1. claudio1301

    claudio1301 Well-Known Member V . I . P.

    Joined:
    Oct 2, 2018
    Messages:
    1,488
    Likes Received:
    3,508
    [​IMG]
    Code:
    General
    Complete name                  : Steps - Words Are Not Enough (Rockamerica).vob
    Format                         : MPEG-PS
    File size                      : 123 MiB
    Duration                       : 3 min 24 s
    Overall bit rate mode          : Variable
    Overall bit rate               : 5 035 kb/s
    
    Video
    ID                             : 224 (0xE0)
    Format                         : MPEG Video
    Format version                 : Version 2
    Format profile                 : Main@Main
    Format settings                : CustomMatrix / BVOP
    Format settings, BVOP          : Yes
    Format settings, Matrix        : Custom
    Format settings, GOP           : Variable
    Format settings, picture struc : Frame
    Duration                       : 3 min 24 s
    Bit rate mode                  : Variable
    Bit rate                       : 4 711 kb/s
    Maximum bit rate               : 8 000 kb/s
    Width                          : 720 pixels
    Height                         : 480 pixels
    Display aspect ratio           : 4:3
    Frame rate                     : 29.970 (30000/1001) FPS
    Standard                       : NTSC
    Color space                    : YUV
    Chroma subsampling             : 4:2:0
    Bit depth                      : 8 bits
    Scan type                      : Interlaced
    Scan order                     : Top Field First
    Compression mode               : Lossy
    Bits/(Pixel*Frame)             : 0.455
    Time code of first frame       : 00:00:00:00
    Time code source               : Group of pictures header
    GOP, Open/Closed               : Open
    GOP, Open/Closed of first fram : Closed
    Stream size                    : 115 MiB (94%)
    
    Audio
    ID                             : 189 (0xBD)-128 (0x80)
    Format                         : AC-3
    Format/Info                    : Audio Coding 3
    Commercial name                : Dolby Digital
    Muxing mode                    : DVD-Video
    Duration                       : 3 min 24 s
    Bit rate mode                  : Constant
    Bit rate                       : 224 kb/s
    Channel(s)                     : 2 channels
    Channel layout                 : L R
    Sampling rate                  : 48.0 kHz
    Frame rate                     : 31.250 FPS (1536 SPF)
    Compression mode               : Lossy
    Stream size                    : 5.47 MiB (4%)
    Service kind                   : Complete Main
    
    Menu
    Host: Mediafire
    Hidden Content:
    You must either reply or click 'Like' to see the hidden information contained here.
     
  2. Loading...


  3. dinhotwain

    dinhotwain Well-Known Member

    Joined:
    Jan 1, 2015
    Messages:
    2,626
    Likes Received:
    344
  4. sulik

    sulik Member

    Joined:
    Oct 5, 2019
    Messages:
    352
    Likes Received:
    0
    Member
     
  5. the_lanoz

    the_lanoz Active Member

    Joined:
    Jan 2, 2017
    Messages:
    539
    Likes Received:
    41
  6. murdereach

    murdereach Active Member

    Joined:
    Apr 11, 2020
    Messages:
    950
    Likes Received:
    40