DVD Steps - Summer Of Love (MixMash) [VOB]

Discussion in 'SD' started by claudio1301, Apr 25, 2020.

  1. claudio1301

    claudio1301 Well-Known Member V . I . P.

    Joined:
    Oct 2, 2018
    Messages:
    1,488
    Likes Received:
    3,508
    [​IMG]
    Code:
    General
    Complete name                  : Steps - Summer Of Love (MixMash).vob
    Format                         : MPEG-PS
    File size                      : 177 MiB
    Duration                       : 3 min 53 s
    Overall bit rate mode          : Variable
    Overall bit rate               : 6 382 kb/s
    
    Video
    ID                             : 224 (0xE0)
    Format                         : MPEG Video
    Format version                 : Version 2
    Format profile                 : Main@Main
    Format settings                : CustomMatrix / BVOP
    Format settings, BVOP          : Yes
    Format settings, Matrix        : Custom
    Format settings, GOP           : Variable
    Format settings, picture struc : Frame
    Duration                       : 3 min 53 s
    Bit rate mode                  : Variable
    Bit rate                       : 4 719 kb/s
    Maximum bit rate               : 6 000 kb/s
    Width                          : 720 pixels
    Height                         : 576 pixels
    Display aspect ratio           : 4:3
    Frame rate                     : 25.000 FPS
    Standard                       : PAL
    Color space                    : YUV
    Chroma subsampling             : 4:2:0
    Bit depth                      : 8 bits
    Scan type                      : Interlaced
    Scan order                     : Bottom Field First
    Compression mode               : Lossy
    Bits/(Pixel*Frame)             : 0.455
    Time code of first frame       : 00:00:00:00
    Time code source               : Group of pictures header
    Stream size                    : 131 MiB (74%)
    
    Audio
    ID                             : 189 (0xBD)-160 (0xA0)
    Format                         : PCM
    Format settings                : Big / Signed
    Muxing mode                    : DVD-Video
    Duration                       : 3 min 53 s
    Bit rate mode                  : Constant
    Bit rate                       : 1 536 kb/s
    Channel(s)                     : 2 channels
    Sampling rate                  : 48.0 kHz
    Bit depth                      : 16 bits
    Delay relative to video        : -80 ms
    Stream size                    : 42.7 MiB (24%)
    
    Host: Mediafire
    Hidden Content:
    You must either reply or click 'Like' to see the hidden information contained here.
     
  2. Loading...


  3. sulik

    sulik Member

    Joined:
    Oct 5, 2019
    Messages:
    352
    Likes Received:
    0
    Member
     
  4. josedavidhcu

    josedavidhcu Active Member

    Joined:
    Jun 23, 2016
    Messages:
    767
    Likes Received:
    140
  5. murdereach

    murdereach Active Member

    Joined:
    Apr 11, 2020
    Messages:
    950
    Likes Received:
    40