DVD Stacie Orrico - Stuck (Thunderpuss Club Edit) (Promo Only) [VOB]

Discussion in 'SD' started by claudio1301, Aug 4, 2020.

  1. claudio1301

    claudio1301 Well-Known Member

    Joined:
    Oct 2, 2018
    Messages:
    1,383
    Likes Received:
    2,920
    [​IMG]
    Code:
    General
    Complete name                  : Stacie Orrico - Stuck (Thunderpuss Club Edit) (Promo Only).vob
    Format                         : MPEG-PS
    File size                      : 227 MiB
    Duration                       : 4 min 8 s
    Overall bit rate mode          : Variable
    Overall bit rate               : 7 656 kb/s
    
    Video
    ID                             : 224 (0xE0)
    Format                         : MPEG Video
    Format version                 : Version 2
    Format profile                 : Main@Main
    Format settings                : BVOP
    Format settings, BVOP          : Yes
    Format settings, Matrix        : Default
    Format settings, GOP           : M=3, N=13
    Format settings, picture struc : Frame
    Duration                       : 4 min 8 s
    Bit rate mode                  : Variable
    Bit rate                       : 6 000 kb/s
    Width                          : 720 pixels
    Height                         : 480 pixels
    Display aspect ratio           : 4:3
    Frame rate                     : 29.970 (30000/1001) FPS
    Standard                       : NTSC
    Color space                    : YUV
    Chroma subsampling             : 4:2:0
    Bit depth                      : 8 bits
    Scan type                      : Interlaced
    Scan order                     : Top Field First
    Compression mode               : Lossy
    Bits/(Pixel*Frame)             : 0.579
    Time code of first frame       : 00:00:00;00
    Time code source               : Group of pictures header
    GOP, Open/Closed               : Closed
    Stream size                    : 177 MiB (78%)
    Color primaries                : BT.601 NTSC
    Transfer characteristics       : BT.601
    Matrix coefficients            : BT.601
    
    Audio
    ID                             : 189 (0xBD)-160 (0xA0)
    Format                         : PCM
    Format settings                : Big / Signed
    Muxing mode                    : DVD-Video
    Duration                       : 4 min 8 s
    Bit rate mode                  : Constant
    Bit rate                       : 1 536 kb/s
    Channel(s)                     : 2 channels
    Sampling rate                  : 48.0 kHz
    Bit depth                      : 16 bits
    Delay relative to video        : 2 ms
    Stream size                    : 45.5 MiB (20%)
    Host: Mediafire
    Hidden Content:
    You must reply before you can see the hidden data contained here.
     
  2. Loading...


  3. jeferso

    jeferso Active Member

    Joined:
    May 29, 2019
    Messages:
    387
    Likes Received:
    147
    obrigado
     
  4. Vinny

    Vinny Well-Known Member

    Joined:
    Dec 26, 2013
    Messages:
    4,822
    Likes Received:
    76
    Thanks
     
  5. jfsilva28

    jfsilva28 Well-Known Member

    Joined:
    May 9, 2018
    Messages:
    1,813
    Likes Received:
    161
    Gracias
     
  6. alonso181920

    alonso181920 Member

    Joined:
    Apr 16, 2020
    Messages:
    296
    Likes Received:
    15
    THANK
     
  7. 3veronicas

    3veronicas Well-Known Member

    Joined:
    Aug 26, 2016
    Messages:
    4,776
    Likes Received:
    370
    Thanks!