DVD Spice Girls - Spice Up Your Life (Morales Radio Mix) (Screenplay) [VOB]

Discussion in 'SD' started by claudio1301, Oct 20, 2020.

  1. claudio1301

    claudio1301 Well-Known Member V . I . P.

    Joined:
    Oct 2, 2018
    Messages:
    1,477
    Likes Received:
    3,326
    [​IMG]
    Code:
    General
    Complete name                  : Spice Girls - Spice Up Your Life (Morales Radio Mix) (Screenplay).vob
    Format                         : MPEG-PS
    File size                      : 124 MiB
    Duration                       : 2 min 48 s
    Overall bit rate mode          : Variable
    Overall bit rate               : 6 179 kb/s
    
    Video
    ID                             : 224 (0xE0)
    Format                         : MPEG Video
    Format version                 : Version 2
    Format profile                 : Main@Main
    Format settings                : CustomMatrix / BVOP
    Format settings, BVOP          : Yes
    Format settings, Matrix        : Custom
    Format settings, GOP           : M=3, N=15
    Format settings, picture struc : Frame
    Duration                       : 2 min 48 s
    Bit rate mode                  : Variable
    Bit rate                       : 4 520 kb/s
    Maximum bit rate               : 8 000 kb/s
    Width                          : 720 pixels
    Height                         : 480 pixels
    Display aspect ratio           : 4:3
    Frame rate                     : 29.970 (30000/1001) FPS
    Standard                       : NTSC
    Color space                    : YUV
    Chroma subsampling             : 4:2:0
    Bit depth                      : 8 bits
    Scan type                      : Interlaced
    Scan order                     : Bottom Field First
    Compression mode               : Lossy
    Bits/(Pixel*Frame)             : 0.436
    Time code of first frame       : 00:00:00:00
    Time code source               : Group of pictures header
    GOP, Open/Closed               : Closed
    Stream size                    : 91.0 MiB (73%)
    Color primaries                : BT.601 NTSC
    Transfer characteristics       : BT.601
    Matrix coefficients            : BT.601
    
    Audio
    ID                             : 189 (0xBD)-160 (0xA0)
    Format                         : PCM
    Format settings                : Big / Signed
    Muxing mode                    : DVD-Video
    Duration                       : 2 min 48 s
    Bit rate mode                  : Constant
    Bit rate                       : 1 536 kb/s
    Channel(s)                     : 2 channels
    Sampling rate                  : 48.0 kHz
    Bit depth                      : 16 bits
    Stream size                    : 30.9 MiB (25%)
    
    Menu
    Host: Mediafire
    Hidden Content:
    You must reply before you can see the hidden data contained here.
     
  2. Loading...


  3. Tiago

    Tiago Well-Known Member

    Joined:
    Dec 7, 2013
    Messages:
    3,629
    Likes Received:
    421
    thanks
     
  4. revili181920

    revili181920 Member

    Joined:
    Apr 16, 2020
    Messages:
    218
    Likes Received:
    13
    tankkk
     
  5. sulik

    sulik Member

    Joined:
    Oct 5, 2019
    Messages:
    287
    Likes Received:
    0
    Member
     
  6. Leomacae

    Leomacae Active Member

    Joined:
    Oct 3, 2015
    Messages:
    264
    Likes Received:
    35
    Thank you.
     
  7. Denishx

    Denishx Member

    Joined:
    Aug 4, 2014
    Messages:
    256
    Likes Received:
    3
    thank you
     
  8. Diego Spears

    Diego Spears Active Member

    Joined:
    Jan 22, 2017
    Messages:
    718
    Likes Received:
    47
    Thank You
     
  9. kowalski2016

    kowalski2016 Active Member

    Joined:
    May 18, 2016
    Messages:
    613
    Likes Received:
    45
    thank you!
     
  10. Diego Spears

    Diego Spears Active Member

    Joined:
    Jan 22, 2017
    Messages:
    718
    Likes Received:
    47
    thank you
     
  11. leandropenatti

    leandropenatti Member

    Joined:
    Oct 14, 2020
    Messages:
    50
    Likes Received:
    2
  12. jfsilva28

    jfsilva28 Well-Known Member

    Joined:
    May 9, 2018
    Messages:
    1,833
    Likes Received:
    164
    Gracias
     
  13. Lipstuck

    Lipstuck Member

    Joined:
    Jan 13, 2018
    Messages:
    181
    Likes Received:
    10
    Thank you!
     
  14. manolo

    manolo Well-Known Member

    Joined:
    May 18, 2015
    Messages:
    761
    Likes Received:
    490