Spice Girls - Holler (TOTPs 13.10.2000) 60fps dual audio

Discussion in 'SD Live Performances' started by marcelwithluv, Jan 22, 2019.

  1. marcelwithluv

    marcelwithluv Active Member

    Joined:
    Sep 1, 2016
    Messages:
    431
    Likes Received:
    90
    Spice Girls - Holler (TOTPs 13.10.2000) 60fps dual audio - remastered video & dual audio with a live mix.
    It took a while but I hope you enjoy!

    [​IMG]

    Hidden Content:
    You must reply before you can see the hidden data contained here.
    [​IMG]
    [​IMG]

    [​IMG]
    [​IMG]

    Video
    ID : 1
    Format : AVC
    Format/Info : Advanced Video Codec
    Format profile : High@L3.1
    Format settings : CABAC / 6 Ref Frames
    Format settings, CABAC : Yes
    Format settings, RefFrames : 6 frames
    Codec ID : V_MPEG4/ISO/AVC
    Duration : 3 min 40 s
    Bit rate mode : Variable
    Bit rate : 10 000 kb/s
    Maximum bit rate : 15.7 Mb/s
    Width : 768 pixels
    Height : 576 pixels
    Display aspect ratio : 4:3
    Frame rate mode : Constant
    Frame rate : 60.000 FPS
    Standard : Component
    Color space : YUV
    Chroma subsampling : 4:2:0
    Bit depth : 8 bits
    Scan type : Progressive
    Bits/(Pixel*Frame) : 0.377
    Stream size : 263 MiB (96%)
    Writing library : x264 core 136
    Encoding settings : cabac=1 / ref=6 / deblock=1:0:0 / analyse=0x3:0x133 / me=umh / subme=9 / psy=1 / psy_rd=1.00:0.00 / mixed_ref=1 / me_range=24 / chroma_me=1 / trellis=2 / 8x8dct=1 / cqm=2 / deadzone=21,11 / fast_pskip=1 / chroma_qp_offset=-4 / threads=12 / lookahead_threads=1 / sliced_threads=0 / slices=1 / nr=0 / decimate=1 / interlaced=0 / bluray_compat=0 / constrained_intra=0 / bframes=3 / b_pyramid=0 / b_adapt=2 / b_bias=0 / direct=3 / weightb=1 / open_gop=0 / weightp=1 / keyint=250 / keyint_min=25 / scenecut=59 / intra_refresh=0 / rc_lookahead=60 / rc=2pass / mbtree=1 / bitrate=10000 / ratetol=1.0 / qcomp=0.60 / qpmin=5 / qpmax=69 / qpstep=4 / cplxblur=20.0 / qblur=0.5 / vbv_maxrate=15727 / vbv_bufsize=1163 / nal_hrd=vbr / ip_ratio=1.40 / aq=1:1.00
    Language : English
    Default : Yes
    Forced : No
    Color range : Limited
    Color primaries : BT.709
    Transfer characteristics : BT.709
    Matrix coefficients : BT.709

    Audio #1
    ID : 2
    Format : MPEG Audio
    Format version : Version 1
    Format profile : Layer 3
    Format settings : Joint stereo
    Codec ID : A_MPEG/L3
    Codec ID/Hint : MP3
    Duration : 3 min 40 s
    Bit rate mode : Constant
    Bit rate : 224 kb/s
    Channel(s) : 2 channels
    Sampling rate : 44.1 kHz
    Frame rate : 38.281 FPS (1152 SPF)
    Compression mode : Lossy
    Stream size : 5.90 MiB (2%)
    Language : English
    Default : Yes
    Forced : Yes

    Audio #2
    ID : 3
    Format : MPEG Audio
    Format version : Version 1
    Format profile : Layer 3
    Format settings : Joint stereo
    Codec ID : A_MPEG/L3
    Codec ID/Hint : MP3
    Duration : 3 min 40 s
    Bit rate mode : Constant
    Bit rate : 224 kb/s
    Channel(s) : 2 channels
    Sampling rate : 44.1 kHz
    Frame rate : 38.281 FPS (1152 SPF)
    Compression mode : Lossy
    Stream size : 5.90 MiB (2%)
    Language : French
    Default : No
    Forced : No
     
    Last edited: Jan 22, 2019
  2. Loading...


  3. TrendMusic

    TrendMusic Well-Known Member

    Joined:
    Oct 7, 2013
    Messages:
    2,036
    Likes Received:
    214
    thanks .... more live Spice Girls
     
    marcelwithluv likes this.
  4. BetaKsi

    BetaKsi Well-Known Member

    Joined:
    Oct 18, 2015
    Messages:
    2,911
    Likes Received:
    707
    Thank you))
     
    marcelwithluv likes this.
  5. logrono

    logrono Well-Known Member V . I . P.

    Joined:
    Mar 8, 2017
    Messages:
    2,489
    Likes Received:
    3,922
    Good post
     
    marcelwithluv likes this.
  6. Romana

    Romana Active Member

    Joined:
    Oct 26, 2013
    Messages:
    821
    Likes Received:
    122
    thaaanks!!
     
    marcelwithluv likes this.
  7. sideshow_bob

    sideshow_bob Well-Known Member

    Joined:
    Dec 20, 2013
    Messages:
    3,434
    Likes Received:
    387
    Super. Thanks!
     
    marcelwithluv likes this.
  8. Danny82

    Danny82 Well-Known Member

    Joined:
    May 28, 2016
    Messages:
    2,731
    Likes Received:
    1,038
    Thank you!
     
    marcelwithluv likes this.
  9. revilo18

    revilo18 Well-Known Member

    Joined:
    May 26, 2016
    Messages:
    2,656
    Likes Received:
    162
    thankkk
     
    marcelwithluv likes this.
  10. 3veronicas

    3veronicas Well-Known Member

    Joined:
    Aug 26, 2016
    Messages:
    2,733
    Likes Received:
    167
    Thanks!
     
    marcelwithluv likes this.
  11. Dilson Nunes

    Dilson Nunes Active Member

    Joined:
    Sep 21, 2014
    Messages:
    600
    Likes Received:
    86
    thnx!!!
     
    marcelwithluv likes this.
  12. aaliyah2009

    aaliyah2009 Well-Known Member

    Joined:
    Feb 2, 2017
    Messages:
    1,752
    Likes Received:
    86
    Thank you!
     
    marcelwithluv likes this.
  13. exterminador

    exterminador Well-Known Member

    Joined:
    Jul 3, 2016
    Messages:
    2,935
    Likes Received:
    269
    Thanks!
     
    marcelwithluv likes this.
  14. apl3

    apl3 Well-Known Member

    Joined:
    Jun 11, 2017
    Messages:
    1,605
    Likes Received:
    40
    thanks
     
    marcelwithluv likes this.
  15. rkgmade

    rkgmade Well-Known Member

    Joined:
    Sep 29, 2016
    Messages:
    2,442
    Likes Received:
    145
    thanks
     
    marcelwithluv likes this.
  16. n3grox

    n3grox Active Member

    Joined:
    May 25, 2016
    Messages:
    612
    Likes Received:
    35
    thanks
     
    marcelwithluv likes this.
  17. jerrmx

    jerrmx Well-Known Member

    Joined:
    Sep 8, 2016
    Messages:
    1,122
    Likes Received:
    80
    thaniks
     
  18. Thiago Lyra

    Thiago Lyra Member

    Joined:
    May 20, 2015
    Messages:
    162
    Likes Received:
    11
  19. s1sav

    s1sav Member

    Joined:
    Feb 27, 2014
    Messages:
    225
    Likes Received:
    14
    Thank you
     
  20. lastxdance

    lastxdance Active Member

    Joined:
    Dec 13, 2016
    Messages:
    624
    Likes Received:
    35
    Thanks!
     
  21. rober31

    rober31 Active Member

    Joined:
    Jun 2, 2017
    Messages:
    716
    Likes Received:
    83
    thanks!!