Spice Girls - 2 become 1 (GMTV 19.12.96) 60fps dual audio

Discussion in 'SD Live Performances' started by marcelwithluv, Feb 1, 2019.

  1. marcelwithluv

    marcelwithluv Active Member

    Joined:
    Sep 1, 2016
    Messages:
    425
    Likes Received:
    74
    60fps dual audio - remastered video & dual audio with a live mix.

    [​IMG]

    Hidden Content:
    You must reply before you can see the hidden data contained here.
    Video
    ID : 1
    Format : AVC
    Format/Info : Advanced Video Codec
    Format profile : High@L3.2
    Format settings : CABAC / 6 Ref Frames
    Format settings, CABAC : Yes
    Format settings, RefFrames : 6 frames
    Codec ID : V_MPEG4/ISO/AVC
    Duration : 3 min 42 s
    Bit rate mode : Variable
    Bit rate : 12.5 Mb/s
    Maximum bit rate : 23.3 Mb/s
    Width : 768 pixels
    Height : 576 pixels
    Display aspect ratio : 4:3
    Frame rate mode : Constant
    Frame rate : 60.000 FPS
    Standard : Component
    Color space : YUV
    Chroma subsampling : 4:2:0
    Bit depth : 8 bits
    Scan type : Progressive
    Bits/(Pixel*Frame) : 0.471
    Stream size : 332 MiB (97%)
    Writing library : x264 core 136
    Encoding settings : cabac=1 / ref=6 / deblock=1:0:0 / analyse=0x3:0x133 / me=umh / subme=9 / psy=1 / psy_rd=1.00:0.00 / mixed_ref=1 / me_range=24 / chroma_me=1 / trellis=2 / 8x8dct=1 / cqm=2 / deadzone=21,11 / fast_pskip=1 / chroma_qp_offset=-4 / threads=12 / lookahead_threads=1 / sliced_threads=0 / slices=1 / nr=0 / decimate=1 / interlaced=0 / bluray_compat=0 / constrained_intra=0 / bframes=3 / b_pyramid=0 / b_adapt=2 / b_bias=0 / direct=3 / weightb=1 / open_gop=0 / weightp=1 / keyint=250 / keyint_min=25 / scenecut=73 / intra_refresh=0 / rc_lookahead=60 / rc=2pass / mbtree=1 / bitrate=12508 / ratetol=1.0 / qcomp=0.60 / qpmin=5 / qpmax=69 / qpstep=4 / cplxblur=20.0 / qblur=0.5 / vbv_maxrate=23302 / vbv_bufsize=4571 / nal_hrd=vbr / ip_ratio=1.40 / aq=1:1.00
    Language : English
    Default : Yes
    Forced : No
    Color range : Limited
    Color primaries : BT.709
    Transfer characteristics : BT.709
    Matrix coefficients : BT.709

    Audio #1
    ID : 2
    Format : MPEG Audio
    Format version : Version 1
    Format profile : Layer 3
    Format settings : Joint stereo
    Codec ID : A_MPEG/L3
    Codec ID/Hint : MP3
    Duration : 3 min 42 s
    Bit rate mode : Constant
    Bit rate : 224 kb/s
    Channel(s) : 2 channels
    Sampling rate : 44.1 kHz
    Frame rate : 38.281 FPS (1152 SPF)
    Compression mode : Lossy
    Stream size : 5.93 MiB (2%)
    Language : English
    Default : Yes
    Forced : Yes

    Audio #2
    ID : 3
    Format : MPEG Audio
    Format version : Version 1
    Format profile : Layer 3
    Format settings : Joint stereo
    Codec ID : A_MPEG/L3
    Codec ID/Hint : MP3
    Duration : 3 min 42 s
    Bit rate mode : Constant
    Bit rate : 224 kb/s
    Channel(s) : 2 channels
    Sampling rate : 44.1 kHz
    Frame rate : 38.281 FPS (1152 SPF)
    Compression mode : Lossy
    Stream size : 5.93 MiB (2%)
    Language : French
    Default : No
    Forced : No

    [​IMG] [​IMG] [​IMG] [​IMG]
     
  2. Loading...


  3. TrendMusic

    TrendMusic Well-Known Member

    Joined:
    Oct 7, 2013
    Messages:
    1,932
    Likes Received:
    187
    marcelwithluv likes this.
  4. Romana

    Romana Active Member

    Joined:
    Oct 26, 2013
    Messages:
    773
    Likes Received:
    118
    thank u!!!
     
    marcelwithluv likes this.
  5. 3veronicas

    3veronicas Well-Known Member

    Joined:
    Aug 26, 2016
    Messages:
    2,439
    Likes Received:
    137
    Thanks!
     
    marcelwithluv likes this.
  6. Antonio Barros

    Antonio Barros Well-Known Member

    Joined:
    Nov 14, 2013
    Messages:
    1,401
    Likes Received:
    290
    thanxxxxxxxxxxxx
     
    marcelwithluv likes this.
  7. jerrmx

    jerrmx Well-Known Member

    Joined:
    Sep 8, 2016
    Messages:
    1,060
    Likes Received:
    73
    thank you
     
  8. hungquocphan

    hungquocphan Active Member

    Joined:
    Nov 1, 2013
    Messages:
    809
    Likes Received:
    36
  9. rkgmade

    rkgmade Well-Known Member

    Joined:
    Sep 29, 2016
    Messages:
    2,016
    Likes Received:
    115
    thanks
     
  10. sideshow_bob

    sideshow_bob Well-Known Member

    Joined:
    Dec 20, 2013
    Messages:
    3,364
    Likes Received:
    356
    Thanks a million!
     
  11. s1sav

    s1sav Member

    Joined:
    Feb 27, 2014
    Messages:
    217
    Likes Received:
    14
    Thank you
     
  12. Tiago

    Tiago Well-Known Member

    Joined:
    Dec 7, 2013
    Messages:
    2,674
    Likes Received:
    126
    thanks
     
  13. apl3

    apl3 Well-Known Member

    Joined:
    Jun 11, 2017
    Messages:
    1,500
    Likes Received:
    39
    thanks
     
  14. carlos69

    carlos69 Well-Known Member

    Joined:
    Dec 17, 2013
    Messages:
    1,343
    Likes Received:
    104
    Thanks again
     
  15. rober31

    rober31 Active Member

    Joined:
    Jun 2, 2017
    Messages:
    611
    Likes Received:
    74
    thanks!!
     
  16. markjackson

    markjackson Well-Known Member

    Joined:
    Jan 8, 2014
    Messages:
    1,062
    Likes Received:
    57
    thank you
     
  17. lumiillerjr

    lumiillerjr Member

    Joined:
    Jan 24, 2019
    Messages:
    200
    Likes Received:
    10
    thanks
     
  18. chokko

    chokko Member

    Joined:
    Dec 10, 2016
    Messages:
    314
    Likes Received:
    15
    thanks
     
  19. toonbbv

    toonbbv Well-Known Member

    Joined:
    Dec 11, 2013
    Messages:
    2,364
    Likes Received:
    118
    thank you
     
  20. fernanassis

    fernanassis Active Member

    Joined:
    Sep 8, 2014
    Messages:
    626
    Likes Received:
    45
  21. KylieFan19

    KylieFan19 Member

    Joined:
    May 7, 2018
    Messages:
    126
    Likes Received:
    5
    Thanks