PACK Spéciale - Sia (NRJHITSHD-1080i-DD2.0-Olgold)-HDMania

Discussion in 'NRJ HITS' started by Olgold, May 5, 2016.

  1. Olgold

    Olgold Well-Known Member Capper

    Joined:
    Aug 19, 2015
    Messages:
    435
    Likes Received:
    1,501
    Password: Olgold

    Sia - Clap Your Hands
    [​IMG]
    General
    Format : MPEG-TS
    File size : 225 MiB
    Duration : 3mn 53s
    Overall bit rate mode : Variable
    Overall bit rate : 7 916 Kbps

    Video
    Format : AVC
    Format/Info : Advanced Video Codec
    Format profile : [email protected]
    Format settings, CABAC : Yes
    Format settings, ReFrames : 4 frames
    Duration : 3mn 52s
    Bit rate : 7 331 Kbps
    Width : 1 920 pixels
    Height : 1 080 pixels
    Display aspect ratio : 16:9
    Frame rate : 25.000 fps
    Standard : Component
    Color space : YUV
    Chroma subsampling : 4:2:0
    Bit depth : 8 bits
    Scan type : MBAFF
    Scan type, store method : Interleaved fields
    Scan order : Top Field First
    Bits/(Pixel*Frame) : 0.141
    Stream size : 203 MiB (90%)

    Audio
    Format : AC-3
    Format/Info : Audio Coding 3
    Mode extension : CM (complete main)
    Format settings, Endianness : Big
    Duration : 3mn 54s
    Bit rate mode : Constant
    Bit rate : 192 Kbps
    Channel(s) : 2 channels
    Channel positions : Front: L R
    Sampling rate : 48.0 KHz
    Hidden Content:
    You must reply before you can see the hidden data contained here.
    David Guetta feat. Sia - Titanium
    [​IMG]
    General
    Format : MPEG-TS
    File size : 193 MiB
    Duration : 3mn 51s
    Overall bit rate mode : Variable
    Overall bit rate : 6 984 Kbps

    Video
    Format : AVC
    Format/Info : Advanced Video Codec
    Format profile : [email protected]
    Format settings, CABAC : Yes
    Format settings, ReFrames : 4 frames
    Duration : 3mn 51s
    Bit rate : 6 445 Kbps
    Width : 1 920 pixels
    Height : 1 080 pixels
    Display aspect ratio : 16:9
    Frame rate : 25.000 fps
    Standard : Component
    Color space : YUV
    Chroma subsampling : 4:2:0
    Bit depth : 8 bits
    Scan type : MBAFF
    Scan type, store method : Interleaved fields
    Scan order : Top Field First
    Bits/(Pixel*Frame) : 0.124
    Stream size : 178 MiB (92%)

    Audio
    Format : AC-3
    Format/Info : Audio Coding 3
    Mode extension : CM (complete main)
    Format settings, Endianness : Big
    Duration : 3mn 51s
    Bit rate mode : Constant
    Bit rate : 192 Kbps
    Channel(s) : 2 channels
    Channel positions : Front: L R
    Sampling rate : 48.0 KHz
    Hidden Content:
    You must reply before you can see the hidden data contained here.
    Flo Rida feat. Sia - Wild Ones
    [​IMG]
    General
    Format : MPEG-TS
    File size : 309 MiB
    Duration : 3mn 48s
    Overall bit rate mode : Variable
    Overall bit rate : 11.2 Mbps

    Video
    Format : AVC
    Format/Info : Advanced Video Codec
    Format profile : [email protected]
    Format settings, CABAC : Yes
    Format settings, ReFrames : 4 frames
    Duration : 3mn 47s
    Bit rate : 10.4 Mbps
    Width : 1 920 pixels
    Height : 1 080 pixels
    Display aspect ratio : 16:9
    Frame rate : 25.000 fps
    Standard : Component
    Color space : YUV
    Chroma subsampling : 4:2:0
    Bit depth : 8 bits
    Scan type : MBAFF
    Scan type, store method : Interleaved fields
    Scan order : Top Field First
    Bits/(Pixel*Frame) : 0.201
    Stream size : 283 MiB (92%)

    Audio
    Format : AC-3
    Format/Info : Audio Coding 3
    Mode extension : CM (complete main)
    Format settings, Endianness : Big
    Duration : 3mn 49s
    Bit rate mode : Constant
    Bit rate : 192 Kbps
    Channel(s) : 2 channels
    Channel positions : Front: L R
    Sampling rate : 48.0 KHz
    Hidden Content:
    You must reply before you can see the hidden data contained here.
    David Guetta feat. Sia - She Wolf (Falling To Pieces)
    [​IMG]
    General
    Format : MPEG-TS
    File size : 148 MiB
    Duration : 3mn 41s
    Overall bit rate mode : Variable
    Overall bit rate : 5 431 Kbps

    Video
    Format : AVC
    Format/Info : Advanced Video Codec
    Format profile : [email protected]
    Format settings, CABAC : Yes
    Format settings, ReFrames : 4 frames
    Format settings, GOP : M=8, N=24
    Duration : 3mn 40s
    Bit rate : 4 968 Kbps
    Width : 1 920 pixels
    Height : 1 080 pixels
    Display aspect ratio : 16:9
    Frame rate : 25.000 fps
    Standard : Component
    Color space : YUV
    Chroma subsampling : 4:2:0
    Bit depth : 8 bits
    Scan type : MBAFF
    Scan type, store method : Interleaved fields
    Scan order : Top Field First
    Bits/(Pixel*Frame) : 0.096
    Stream size : 131 MiB (88%)

    Audio
    Format : AC-3
    Format/Info : Audio Coding 3
    Mode extension : CM (complete main)
    Format settings, Endianness : Big
    Codec ID : 6
    Duration : 3mn 43s
    Bit rate mode : Constant
    Bit rate : 192 Kbps
    Channel(s) : 2 channels
    Channel positions : Front: L R
    Sampling rate : 48.0 KHz
    Hidden Content:
    You must reply before you can see the hidden data contained here.
    Sia - Chandelier
    [​IMG]
    General
    Format : MPEG-TS
    File size : 153 MiB
    Duration : 3mn 42s
    Overall bit rate mode : Variable
    Overall bit rate : 5 743 Kbps

    Video
    Format : AVC
    Format/Info : Advanced Video Codec
    Format profile : [email protected]
    Format settings, CABAC : Yes
    Format settings, ReFrames : 4 frames
    Duration : 3mn 41s
    Bit rate : 5 265 Kbps
    Width : 1 920 pixels
    Height : 1 080 pixels
    Display aspect ratio : 16:9
    Frame rate : 25.000 fps
    Standard : Component
    Color space : YUV
    Chroma subsampling : 4:2:0
    Bit depth : 8 bits
    Scan type : MBAFF
    Scan type, store method : Interleaved fields
    Scan order : Top Field First
    Bits/(Pixel*Frame) : 0.102
    Stream size : 139 MiB (91%)

    Audio
    Format : AC-3
    Format/Info : Audio Coding 3
    Mode extension : CM (complete main)
    Format settings, Endianness : Big
    Duration : 3mn 42s
    Bit rate mode : Constant
    Bit rate : 192 Kbps
    Channel(s) : 2 channels
    Channel positions : Front: L R
    Sampling rate : 48.0 KHz
    Hidden Content:
    You must reply before you can see the hidden data contained here.
    Eminem feat. Sia - Guts Over Fear
    [​IMG]
    General
    Format : MPEG-TS
    File size : 220 MiB
    Duration : 5mn 1s
    Overall bit rate mode : Variable
    Overall bit rate : 6 105 Kbps

    Video
    Format : AVC
    Format/Info : Advanced Video Codec
    Format profile : [email protected]
    Format settings, CABAC : Yes
    Format settings, ReFrames : 4 frames
    Duration : 5mn 0s
    Bit rate : 5 610 Kbps
    Width : 1 920 pixels
    Height : 1 080 pixels
    Display aspect ratio : 16:9
    Frame rate : 25.000 fps
    Standard : Component
    Color space : YUV
    Chroma subsampling : 4:2:0
    Bit depth : 8 bits
    Scan type : MBAFF
    Scan type, store method : Interleaved fields
    Scan order : Top Field First
    Bits/(Pixel*Frame) : 0.108
    Stream size : 201 MiB (91%)

    Audio
    Format : AC-3
    Format/Info : Audio Coding 3
    Mode extension : CM (complete main)
    Format settings, Endianness : Big
    Duration : 5mn 1s
    Bit rate mode : Constant
    Bit rate : 192 Kbps
    Channel(s) : 2 channels
    Channel positions : Front: L R
    Sampling rate : 48.0 KHz
    Hidden Content:
    You must reply before you can see the hidden data contained here.
    Sia - Elastic Heart
    [​IMG]
    General
    Format : MPEG-TS
    File size : 165 MiB
    Duration : 4mn 12s
    Overall bit rate mode : Variable
    Overall bit rate : 5 486 Kbps

    Video
    Format : AVC
    Format/Info : Advanced Video Codec
    Format profile : [email protected]
    Format settings, CABAC : Yes
    Format settings, ReFrames : 4 frames
    Duration : 4mn 12s
    Bit rate : 5 021 Kbps
    Width : 1 920 pixels
    Height : 1 080 pixels
    Display aspect ratio : 16:9
    Frame rate : 25.000 fps
    Standard : Component
    Color space : YUV
    Chroma subsampling : 4:2:0
    Bit depth : 8 bits
    Scan type : MBAFF
    Scan type, store method : Interleaved fields
    Scan order : Top Field First
    Bits/(Pixel*Frame) : 0.097
    Stream size : 151 MiB (91%)

    Audio
    Format : AC-3
    Format/Info : Audio Coding 3
    Mode extension : CM (complete main)
    Format settings, Endianness : Big
    Duration : 4mn 12s
    Bit rate mode : Constant
    Bit rate : 192 Kbps
    Channel(s) : 2 channels
    Channel positions : Front: L R
    Sampling rate : 48.0 KHz
    Hidden Content:
    You must reply before you can see the hidden data contained here.
    Sia - Big Girls Cry
    [​IMG]
    General
    Format : MPEG-TS
    File size : 116 MiB
    Duration : 3mn 33s
    Overall bit rate mode : Variable
    Overall bit rate : 4 551 Kbps

    Video
    Format : AVC
    Format/Info : Advanced Video Codec
    Format profile : [email protected]
    Format settings, CABAC : Yes
    Format settings, ReFrames : 2 frames
    Codec ID : 27
    Duration : 3mn 33s
    Bit rate : 4 132 Kbps
    Width : 1 920 pixels
    Height : 1 080 pixels
    Display aspect ratio : 16:9
    Frame rate : 25.000 fps

    Audio
    Format : AC-3
    Format/Info : Audio Coding 3
    Mode extension : CM (complete main)
    Format settings, Endianness : Big
    Codec ID : 129
    Duration : 3mn 33s
    Bit rate mode : Constant
    Bit rate : 192 Kbps
    Channel(s) : 2 channels
    Channel positions : Front: L R
    Sampling rate : 48.0 KHz
    Hidden Content:
    You must reply before you can see the hidden data contained here.

    Sia - Fire Meet Gasoline
    [​IMG]
    General
    Format : MPEG-TS
    File size : 133 MiB
    Duration : 3mn 39s
    Overall bit rate mode : Variable
    Overall bit rate : 5 062 Kbps

    Video
    Format : AVC
    Format/Info : Advanced Video Codec
    Format profile : [email protected]
    Format settings, CABAC : Yes
    Format settings, ReFrames : 4 frames
    Duration : 3mn 39s
    Bit rate : 4 618 Kbps
    Width : 1 920 pixels
    Height : 1 080 pixels
    Display aspect ratio : 16:9
    Frame rate : 25.000 fps
    Standard : Component
    Color space : YUV
    Chroma subsampling : 4:2:0
    Bit depth : 8 bits
    Scan type : MBAFF
    Scan type, store method : Interleaved fields
    Scan order : Top Field First
    Bits/(Pixel*Frame) : 0.089
    Stream size : 121 MiB (91%)

    Audio
    Format : AC-3
    Format/Info : Audio Coding 3
    Mode extension : CM (complete main)
    Format settings, Endianness : Big
    Duration : 3mn 39s
    Bit rate mode : Constant
    Bit rate : 192 Kbps
    Channel(s) : 2 channels
    Channel positions : Front: L R
    Sampling rate : 48.0 KHz
    Hidden Content:
    You must reply before you can see the hidden data contained here.
    Sia - Alive
    [​IMG]
    General
    Format : MPEG-TS
    File size : 99.8 MiB
    Duration : 4mn 42s
    Overall bit rate mode : Variable
    Overall bit rate : 2 858 Kbps

    Video
    Format : AVC
    Format/Info : Advanced Video Codec
    Format profile : [email protected]
    Format settings, CABAC : Yes
    Format settings, ReFrames : 4 frames
    Duration : 4mn 41s
    Bit rate : 2 523 Kbps
    Width : 1 920 pixels
    Height : 1 080 pixels
    Display aspect ratio : 16:9
    Frame rate : 25.000 fps
    Standard : Component
    Color space : YUV
    Chroma subsampling : 4:2:0
    Bit depth : 8 bits
    Scan type : MBAFF
    Scan type, store method : Interleaved fields
    Scan order : Top Field First
    Bits/(Pixel*Frame) : 0.049
    Stream size : 84.6 MiB (85%)

    Audio
    Format : AC-3
    Format/Info : Audio Coding 3
    Mode extension : CM (complete main)
    Format settings, Endianness : Big
    Duration : 4mn 43s
    Bit rate mode : Constant
    Bit rate : 192 Kbps
    Channel(s) : 2 channels
    Channel positions : Front: L R
    Sampling rate : 48.0 KHz
    Hidden Content:
    You must reply before you can see the hidden data contained here.
    David Guetta feat. Sia & Fetty Wap - Bang My Head
    [​IMG]
    General
    Format : MPEG-TS
    File size : 142 MiB
    Duration : 3mn 33s
    Overall bit rate mode : Variable
    Overall bit rate : 5 566 Kbps

    Video
    Format : AVC
    Format/Info : Advanced Video Codec
    Format profile : [email protected]
    Format settings, CABAC : Yes
    Format settings, ReFrames : 4 frames
    Duration : 3mn 33s
    Bit rate : 5 097 Kbps
    Width : 1 920 pixels
    Height : 1 080 pixels
    Display aspect ratio : 16:9
    Frame rate : 25.000 fps
    Standard : Component
    Color space : YUV
    Chroma subsampling : 4:2:0
    Bit depth : 8 bits
    Scan type : MBAFF
    Scan type, store method : Interleaved fields
    Scan order : Top Field First
    Bits/(Pixel*Frame) : 0.098
    Stream size : 130 MiB (91%)

    Audio
    Format : AC-3
    Format/Info : Audio Coding 3
    Mode extension : CM (complete main)
    Format settings, Endianness : Big
    Duration : 3mn 33s
    Bit rate mode : Constant
    Bit rate : 192 Kbps
    Channel(s) : 2 channels
    Channel positions : Front: L R
    Sampling rate : 48.0 KHz
    Hidden Content:
    You must reply before you can see the hidden data contained here.
    Sia - Cheap Thrills
    [​IMG]
    General
    Format : MPEG-TS
    File size : 106 MiB
    Duration : 3mn 29s
    Overall bit rate mode : Variable
    Overall bit rate : 4 257 Kbps

    Video
    Format : AVC
    Format/Info : Advanced Video Codec
    Format profile : [email protected]
    Format settings, CABAC : Yes
    Format settings, ReFrames : 4 frames
    Duration : 3mn 29s
    Bit rate : 3 853 Kbps
    Width : 1 920 pixels
    Height : 1 080 pixels
    Display aspect ratio : 16:9
    Frame rate : 25.000 fps
    Standard : Component
    Color space : YUV
    Chroma subsampling : 4:2:0
    Bit depth : 8 bits
    Scan type : MBAFF
    Scan type, store method : Interleaved fields
    Scan order : Top Field First
    Bits/(Pixel*Frame) : 0.074
    Stream size : 96.3 MiB (90%)

    Audio
    Format : AC-3
    Format/Info : Audio Coding 3
    Mode extension : CM (complete main)
    Format settings, Endianness : Big
    Duration : 3mn 29s
    Bit rate mode : Constant
    Bit rate : 192 Kbps
    Channel(s) : 2 channels
    Channel positions : Front: L R
    Sampling rate : 48.0 KHz
    Hidden Content:
    You must reply before you can see the hidden data contained here.
    Maitre Gims feat. Sia - Je Te Pardonne
    [​IMG]
    General
    Format : MPEG-TS
    File size : 184 MiB
    Duration : 3mn 31s
    Overall bit rate mode : Variable
    Overall bit rate : 7 141 Kbps

    Video
    Format : AVC
    Format/Info : Advanced Video Codec
    Format profile : [email protected]
    Format settings, CABAC : Yes
    Format settings, ReFrames : 4 frames
    Duration : 3mn 30s
    Bit rate : 6 594 Kbps
    Width : 1 920 pixels
    Height : 1 080 pixels
    Display aspect ratio : 16:9
    Frame rate : 25.000 fps
    Standard : Component
    Color space : YUV
    Chroma subsampling : 4:2:0
    Bit depth : 8 bits
    Scan type : MBAFF
    Scan type, store method : Interleaved fields
    Scan order : Top Field First
    Bits/(Pixel*Frame) : 0.127
    Stream size : 165 MiB (90%)

    Audio
    Format : AC-3
    Format/Info : Audio Coding 3
    Mode extension : CM (complete main)
    Format settings, Endianness : Big
    Duration : 3mn 32s
    Bit rate mode : Constant
    Bit rate : 192 Kbps
    Channel(s) : 2 channels
    Channel positions : Front: L R
    Sampling rate : 48.0 KHz
    Hidden Content:
    You must reply before you can see the hidden data contained here.
     
    rhea, CELOBRAZiL and Dreamer like this.
  2. Loading...


  3. Snorom6

    Snorom6 Well-Known Member Uploader

    Joined:
    Dec 17, 2015
    Messages:
    4,245
    Likes Received:
    4,203
  4. Dreamer

    Dreamer Lana Del Rey ♥ Capper Uploader

    Joined:
    Dec 4, 2014
    Messages:
    2,507
    Likes Received:
    2,685
    Thank you so much!
     
  5. CELOBRAZiL

    CELOBRAZiL Well-Known Member Capper V . I . P. Donor

    Joined:
    Oct 2, 2013
    Messages:
    2,555
    Likes Received:
    7,179
    Thank you so much my friend! :super::super::super: :)
     
  6. Jose_Moreira_2014

    Jose_Moreira_2014 Member

    Joined:
    Oct 23, 2014
    Messages:
    132
    Likes Received:
    7
    gracias amigo, gran aporte :happy::)
     
  7. MaggieS

    MaggieS Active Member

    Joined:
    Sep 19, 2014
    Messages:
    958
    Likes Received:
    38
    TNX U
     
  8. rhea

    rhea Well-Known Member

    Joined:
    Jan 6, 2014
    Messages:
    5,665
    Likes Received:
    366
    thank you so much! :)
     
  9. jnetow

    jnetow New Member

    Joined:
    Dec 20, 2015
    Messages:
    22
    Likes Received:
    0
    thank
    s
     
  10. hungquocphan

    hungquocphan Member

    Joined:
    Nov 1, 2013
    Messages:
    463
    Likes Received:
    15
    thank for share
     
  11. jighebrew

    jighebrew New Member

    Joined:
    May 14, 2016
    Messages:
    4
    Likes Received:
    0
  12. !bilibong!

    !bilibong! New Member

    Joined:
    May 2, 2016
    Messages:
    19
    Likes Received:
    0
    thank you!
     
  13. slill

    slill Member

    Joined:
    Jul 25, 2014
    Messages:
    929
    Likes Received:
    12
    thanks
     
  14. Albano Salinas

    Albano Salinas Well-Known Member

    Joined:
    Nov 6, 2014
    Messages:
    454
    Likes Received:
    867
    thanks so much!
     
  15. deathstroke

    deathstroke Member

    Joined:
    Nov 13, 2015
    Messages:
    95
    Likes Received:
    5
    thx a lot...
     
  16. Jrec

    Jrec Active Member

    Joined:
    May 11, 2016
    Messages:
    634
    Likes Received:
    25
    Thanks
     
  17. larzpolanzki

    larzpolanzki Member

    Joined:
    Feb 10, 2014
    Messages:
    416
    Likes Received:
    13
    thanks fantastic
     
  18. rikylouis14

    rikylouis14 Well-Known Member

    Joined:
    Jun 27, 2016
    Messages:
    580
    Likes Received:
    311
    taj
    thanks!!!!!!!!!1
     
  19. Godwinson

    Godwinson Active Member

    Joined:
    Oct 23, 2014
    Messages:
    385
    Likes Received:
    56
    Thanks
     
  20. BinhTVT

    BinhTVT Member

    Joined:
    Jun 30, 2015
    Messages:
    178
    Likes Received:
    3
    thanks
     
  21. maurohachen

    maurohachen Member

    Joined:
    Feb 24, 2015
    Messages:
    396
    Likes Received:
    17
    thank you sia