PACK Spéciale - Fifth Harmony (NRJHITSHD-1080i-DD2.0-Olgold)-HDMania

Discussion in 'NRJ HITS' started by Olgold, Apr 14, 2016.

  1. Olgold

    Olgold Well-Known Member Capper

    Joined:
    Aug 19, 2015
    Messages:
    435
    Likes Received:
    1,487
    Password: Olgold

    Fifth Harmony - Miss Movin' On
    [​IMG]
    General
    Format : MPEG-TS
    File size : 274 MiB
    Duration : 3mn 13s
    Overall bit rate mode : Variable
    Overall bit rate : 11.9 Mbps

    Video
    Format : AVC
    Format/Info : Advanced Video Codec
    Format profile : [email protected]
    Format settings, CABAC : Yes
    Format settings, ReFrames : 4 frames
    Duration : 3mn 13s
    Bit rate : 11.1 Mbps
    Width : 1 920 pixels
    Height : 1 080 pixels
    Display aspect ratio : 16:9
    Frame rate : 25.000 fps
    Standard : Component
    Color space : YUV
    Chroma subsampling : 4:2:0
    Bit depth : 8 bits
    Scan type : MBAFF
    Scan type, store method : Interleaved fields
    Scan order : Top Field First
    Bits/(Pixel*Frame) : 0.214
    Stream size : 256 MiB (93%)

    Audio
    Format : AC-3
    Format/Info : Audio Coding 3
    Mode extension : CM (complete main)
    Format settings, Endianness : Big
    Duration : 3mn 13s
    Bit rate mode : Constant
    Bit rate : 192 Kbps
    Channel(s) : 2 channels
    Channel positions : Front: L R
    Sampling rate : 48.0 KHz
    Hidden Content:
    You must reply before you can see the hidden data contained here.
    Fifth Harmony - Me & My Girls
    [​IMG]
    General
    Format : MPEG-TS
    File size : 282 MiB
    Duration : 3mn 24s
    Overall bit rate mode : Variable
    Overall bit rate : 11.6 Mbps

    Video
    Format : AVC
    Format/Info : Advanced Video Codec
    Format profile : [email protected]
    Format settings, CABAC : Yes
    Duration : 3mn 24s
    Bit rate : 10.8 Mbps
    Width : 1 920 pixels
    Height : 1 080 pixels
    Display aspect ratio : 16:9
    Frame rate : 25.000 fps
    Standard : Component
    Color space : YUV
    Chroma subsampling : 4:2:0
    Bit depth : 8 bits
    Scan type : MBAFF
    Scan type, store method : Interleaved fields
    Scan order : Top Field First
    Bits/(Pixel*Frame) : 0.208
    Stream size : 263 MiB (93%)

    Audio
    Format : AC-3
    Format/Info : Audio Coding 3
    Mode extension : CM (complete main)
    Format settings, Endianness : Big
    Duration : 3mn 24s
    Bit rate mode : Constant
    Bit rate : 192 Kbps
    Channel(s) : 2 channels
    Channel positions : Front: L R
    Sampling rate : 48.0 KHz
    Hidden Content:
    You must reply before you can see the hidden data contained here.
    Fifth Harmony - BO$$
    [​IMG]
    General
    Format : MPEG-TS
    File size : 170 MiB
    Duration : 3mn 2s
    Overall bit rate mode : Variable
    Overall bit rate : 7 816 Kbps

    Video
    Format : AVC
    Format/Info : Advanced Video Codec
    Format profile : [email protected]
    Format settings, CABAC : Yes
    Format settings, ReFrames : 4 frames
    Duration : 3mn 2s
    Bit rate : 7 236 Kbps
    Width : 1 920 pixels
    Height : 1 080 pixels
    Display aspect ratio : 16:9
    Frame rate : 25.000 fps
    Standard : Component
    Color space : YUV
    Chroma subsampling : 4:2:0
    Bit depth : 8 bits
    Scan type : MBAFF
    Scan type, store method : Interleaved fields
    Scan order : Top Field First
    Bits/(Pixel*Frame) : 0.140
    Stream size : 157 MiB (93%)

    Audio
    Format : AC-3
    Format/Info : Audio Coding 3
    Mode extension : CM (complete main)
    Format settings, Endianness : Big
    Duration : 3mn 2s
    Bit rate mode : Constant
    Bit rate : 192 Kbps
    Channel(s) : 2 channels
    Channel positions : Front: L R
    Sampling rate : 48.0 KHz
    Hidden Content:
    You must reply before you can see the hidden data contained here.
    Fifth Harmony - Sledgehammer
    [​IMG]
    General
    Format : MPEG-TS
    File size : 173 MiB
    Duration : 3mn 48s
    Overall bit rate mode : Variable
    Overall bit rate : 6 348 Kbps

    Video
    Format : AVC
    Format/Info : Advanced Video Codec
    Format profile : [email protected]
    Format settings, CABAC : Yes
    Format settings, ReFrames : 4 frames
    Duration : 3mn 47s
    Bit rate : 5 840 Kbps
    Width : 1 920 pixels
    Height : 1 080 pixels
    Display aspect ratio : 16:9
    Frame rate : 25.000 fps
    Standard : Component
    Color space : YUV
    Chroma subsampling : 4:2:0
    Bit depth : 8 bits
    Scan type : MBAFF
    Scan type, store method : Interleaved fields
    Scan order : Top Field First
    Bits/(Pixel*Frame) : 0.113
    Stream size : 159 MiB (91%)

    Audio
    Format : AC-3
    Format/Info : Audio Coding 3
    Mode extension : CM (complete main)
    Format settings, Endianness : Big
    Duration : 3mn 48s
    Bit rate mode : Constant
    Bit rate : 192 Kbps
    Channel(s) : 2 channels
    Channel positions : Front: L R
    Sampling rate : 48.0 KHz
    Hidden Content:
    You must reply before you can see the hidden data contained here.
    Fifth Harmony - All I Want for Christmas Is You
    [​IMG]
    General
    Format : MPEG-TS
    File size : 205 MiB
    Duration : 3mn 44s
    Overall bit rate mode : Variable
    Overall bit rate : 7 573 Kbps

    Video
    Format : AVC
    Format/Info : Advanced Video Codec
    Format profile : [email protected]
    Format settings, CABAC : Yes
    Format settings, ReFrames : 4 frames
    Format settings, GOP : M=8, N=24
    Duration : 3mn 43s
    Bit rate : 7 005 Kbps
    Width : 1 920 pixels
    Height : 1 080 pixels
    Display aspect ratio : 16:9
    Frame rate : 25.000 fps
    Standard : Component
    Color space : YUV
    Chroma subsampling : 4:2:0
    Bit depth : 8 bits
    Scan type : MBAFF
    Scan type, store method : Interleaved fields
    Scan order : Top Field First
    Bits/(Pixel*Frame) : 0.135
    Stream size : 186 MiB (91%)

    Audio
    Format : AC-3
    Format/Info : Audio Coding 3
    Mode extension : CM (complete main)
    Format settings, Endianness : Big
    Duration : 3mn 44s
    Bit rate mode : Constant
    Bit rate : 192 Kbps
    Channel(s) : 2 channels
    Channel positions : Front: L R
    Sampling rate : 48.0 KHz
    Hidden Content:
    You must reply before you can see the hidden data contained here.
    Fifth Harmony feat. Kid Ink - Worth It
    [​IMG]
    General
    Format : MPEG-TS
    File size : 275 MiB
    Duration : 3mn 41s
    Overall bit rate mode : Variable
    Overall bit rate : 10.4 Mbps

    Video
    Format : AVC
    Format/Info : Advanced Video Codec
    Format profile : [email protected]
    Format settings, CABAC : Yes
    Format settings, ReFrames : 4 frames
    Duration : 3mn 40s
    Bit rate : 9 657 Kbps
    Width : 1 920 pixels
    Height : 1 080 pixels
    Display aspect ratio : 16:9
    Frame rate : 25.000 fps
    Standard : Component
    Color space : YUV
    Chroma subsampling : 4:2:0
    Bit depth : 8 bits
    Scan type : MBAFF
    Scan type, store method : Interleaved fields
    Scan order : Top Field First
    Bits/(Pixel*Frame) : 0.186
    Stream size : 254 MiB (92%)

    Audio
    Format : AC-3
    Format/Info : Audio Coding 3
    Mode extension : CM (complete main)
    Format settings, Endianness : Big
    Duration : 3mn 41s
    Bit rate mode : Constant
    Bit rate : 192 Kbps
    Channel(s) : 2 channels
    Channel positions : Front: L R
    Sampling rate : 48.0 KHz
    Hidden Content:
    You must reply before you can see the hidden data contained here.

    Fifth Harmony - I'm In Love With a Monster
    [​IMG]
    General
    Format : MPEG-TS
    File size : 248 MiB
    Duration : 3mn 34s
    Overall bit rate mode : Variable
    Overall bit rate : 9 680 Kbps

    Video
    Format : AVC
    Format/Info : Advanced Video Codec
    Format profile : [email protected]
    Format settings, CABAC : Yes
    Format settings, ReFrames : 4 frames
    Duration : 3mn 34s
    Bit rate : 9 008 Kbps
    Width : 1 920 pixels
    Height : 1 080 pixels
    Display aspect ratio : 16:9
    Frame rate : 25.000 fps
    Standard : Component
    Color space : YUV
    Chroma subsampling : 4:2:0
    Bit depth : 8 bits
    Scan type : MBAFF
    Scan type, store method : Interleaved fields
    Scan order : Top Field First
    Bits/(Pixel*Frame) : 0.174
    Stream size : 230 MiB (93%)

    Audio
    Format : AC-3
    Format/Info : Audio Coding 3
    Mode extension : CM (complete main)
    Format settings, Endianness : Big
    Duration : 3mn 34s
    Bit rate mode : Constant
    Bit rate : 192 Kbps
    Channel(s) : 2 channels
    Channel positions : Front: L R
    Sampling rate : 48.0 KHz
    Hidden Content:
    You must reply before you can see the hidden data contained here.

    Shawn Mendes & Camila Cabello - I Know What You Did Last Summer
    [​IMG]
    General
    Format : MPEG-TS
    File size : 108 MiB
    Duration : 3mn 40s
    Overall bit rate mode : Variable
    Overall bit rate : 3 978 Kbps

    Video
    Format : AVC
    Format/Info : Advanced Video Codec
    Format profile : [email protected]
    Format settings, CABAC : Yes
    Format settings, ReFrames : 4 frames
    Format settings, GOP : M=8, N=24
    Duration : 3mn 39s
    Bit rate : 3 587 Kbps
    Width : 1 920 pixels
    Height : 1 080 pixels
    Display aspect ratio : 16:9
    Frame rate : 25.000 fps
    Standard : Component
    Color space : YUV
    Chroma subsampling : 4:2:0
    Bit depth : 8 bits
    Scan type : MBAFF
    Scan type, store method : Interleaved fields
    Scan order : Top Field First
    Bits/(Pixel*Frame) : 0.069
    Stream size : 93.9 MiB (87%)

    Audio
    Format : AC-3
    Format/Info : Audio Coding 3
    Mode extension : CM (complete main)
    Format settings, Endianness : Big
    Duration : 3mn 41s
    Bit rate mode : Constant
    Bit rate : 192 Kbps
    Channel(s) : 2 channels
    Channel positions : Front: L R
    Sampling rate : 48.0 KHz
    Hidden Content:
    You must reply before you can see the hidden data contained here.

    Fifth Harmony feat. Ty Dolla $ign - Work From Home
    [​IMG]
    General
    Format : MPEG-TS
    File size : 222 MiB
    Duration : 3mn 37s
    Overall bit rate mode : Variable
    Overall bit rate : 8 533 Kbps

    Video
    Format : AVC
    Format/Info : Advanced Video Codec
    Format profile : [email protected]
    Format settings, CABAC : Yes
    Format settings, ReFrames : 4 frames
    Duration : 3mn 36s
    Bit rate : 7 918 Kbps
    Width : 1 920 pixels
    Height : 1 080 pixels
    Display aspect ratio : 16:9
    Frame rate : 25.000 fps
    Standard : Component
    Color space : YUV
    Chroma subsampling : 4:2:0
    Bit depth : 8 bits
    Scan type : MBAFF
    Scan type, store method : Interleaved fields
    Scan order : Top Field First
    Bits/(Pixel*Frame) : 0.153
    Stream size : 205 MiB (92%)

    Audio
    Format : AC-3
    Format/Info : Audio Coding 3
    Mode extension : CM (complete main)
    Format settings, Endianness : Big
    Duration : 3mn 37s
    Bit rate mode : Constant
    Bit rate : 192 Kbps
    Channel(s) : 2 channels
    Channel positions : Front: L R
    Sampling rate : 48.0 KHz
    Hidden Content:
    You must reply before you can see the hidden data contained here.
     
    rhea, CELOBRAZiL and Dreamer like this.
  2. Loading...


  3. Joseph

    Joseph Active Member

    Joined:
    Dec 10, 2013
    Messages:
    740
    Likes Received:
    162
    thank you!
     
  4. Dreamer

    Dreamer Lana Del Rey ♥ Capper Uploader

    Joined:
    Dec 4, 2014
    Messages:
    2,413
    Likes Received:
    2,477
    Thank you so much! :)
     
  5. Snorom6

    Snorom6 Well-Known Member Uploader

    Joined:
    Dec 17, 2015
    Messages:
    4,245
    Likes Received:
    4,016
  6. joelh20101

    joelh20101 Well-Known Member

    Joined:
    Nov 4, 2013
    Messages:
    1,459
    Likes Received:
    140
    thanks for this
     
  7. rhea

    rhea Well-Known Member

    Joined:
    Jan 6, 2014
    Messages:
    5,578
    Likes Received:
    340
    thank you so much! :)
     
  8. Ray031

    Ray031 Member

    Joined:
    Jul 11, 2015
    Messages:
    316
    Likes Received:
    8
    Thank You
     
  9. slill

    slill Member

    Joined:
    Jul 25, 2014
    Messages:
    929
    Likes Received:
    11
    thanks
     
  10. BlueNature

    BlueNature Member

    Joined:
    Sep 28, 2014
    Messages:
    333
    Likes Received:
    4
    Thank you..
     
  11. 3veronicas

    3veronicas Member

    Joined:
    Aug 26, 2016
    Messages:
    738
    Likes Received:
    16
  12. BinhTVT

    BinhTVT Member

    Joined:
    Jun 30, 2015
    Messages:
    178
    Likes Received:
    3
    thank u
     
  13. Lucky

    Lucky Member

    Joined:
    Sep 26, 2016
    Messages:
    253
    Likes Received:
    16
    thanks
     
  14. PositiveRush97

    PositiveRush97 Member

    Joined:
    Jan 19, 2017
    Messages:
    73
    Likes Received:
    4
  15. PositiveRush97

    PositiveRush97 Member

    Joined:
    Jan 19, 2017
    Messages:
    73
    Likes Received:
    4
  16. rcj

    rcj Member

    Joined:
    May 11, 2016
    Messages:
    285
    Likes Received:
    12
    Thank U!