PACK Spéciale - Ellie Goulding (NRJHITSHD-1080i-DD2.0-Olgold)-HDMania

Discussion in 'NRJ HITS' started by Olgold, Mar 27, 2016.

  1. Olgold

    Olgold Well-Known Member Capper

    Joined:
    Aug 19, 2015
    Messages:
    435
    Likes Received:
    1,487
    Password: Olgold

    Ellie Goulding - Lights
    [​IMG]
    General
    Format : MPEG-TS
    File size : 150 MiB
    Duration : 3mn 31s
    Overall bit rate mode : Variable
    Overall bit rate : 5 946 Kbps

    Video
    Format : AVC
    Format/Info : Advanced Video Codec
    Format profile : [email protected]
    Format settings, CABAC : Yes
    Format settings, ReFrames : 4 frames
    Duration : 3mn 29s
    Bit rate : 5 458 Kbps
    Width : 1 920 pixels
    Height : 1 080 pixels
    Display aspect ratio : 16:9
    Frame rate : 25.000 fps
    Standard : Component
    Color space : YUV
    Chroma subsampling : 4:2:0
    Bit depth : 8 bits
    Scan type : MBAFF
    Scan type, store method : Interleaved fields
    Scan order : Top Field First
    Bits/(Pixel*Frame) : 0.105
    Stream size : 137 MiB (91%)

    Audio
    Format : AC-3
    Format/Info : Audio Coding 3
    Mode extension : CM (complete main)
    Format settings, Endianness : Big
    Duration : 3mn 31s
    Bit rate mode : Constant
    Bit rate : 192 Kbps
    Channel(s) : 2 channels
    Channel positions : Front: L R
    Sampling rate : 48.0 KHz
    Hidden Content:
    You must reply before you can see the hidden data contained here.
    Ellie Goulding - Figure 8
    [​IMG]
    General
    Format : MPEG-TS
    File size : 208 MiB
    Duration : 3mn 58s
    Overall bit rate mode : Variable
    Overall bit rate : 7 304 Kbps

    Video
    Format : AVC
    Format/Info : Advanced Video Codec
    Format profile : [email protected]
    Format settings, CABAC : Yes
    Format settings, ReFrames : 4 frames
    Duration : 3mn 57s
    Bit rate : 6 749 Kbps
    Width : 1 920 pixels
    Height : 1 080 pixels
    Display aspect ratio : 16:9
    Frame rate : 25.000 fps
    Standard : Component
    Color space : YUV
    Chroma subsampling : 4:2:0
    Bit depth : 8 bits
    Scan type : MBAFF
    Scan type, store method : Interleaved fields
    Scan order : Top Field First
    Bits/(Pixel*Frame) : 0.130
    Stream size : 191 MiB (92%)
    Encryption : Seca Mediaguard 1/2

    Audio
    Format : AC-3
    Format/Info : Audio Coding 3
    Mode extension : CM (complete main)
    Format settings, Endianness : Big
    Duration : 3mn 58s
    Bit rate mode : Constant
    Bit rate : 192 Kbps
    Channel(s) : 2 channels
    Channel positions : Front: L R
    Sampling rate : 48.0 KHz
    Hidden Content:
    You must reply before you can see the hidden data contained here.
    Ellie Goulding - Burn

    [​IMG]
    General
    Format : MPEG-TS
    File size : 118 MiB
    Duration : 3mn 50s
    Overall bit rate mode : Variable
    Overall bit rate : 4 269 Kbps

    Video
    Format : AVC
    Format/Info : Advanced Video Codec
    Format profile : [email protected]
    Format settings, CABAC : Yes
    Format settings, ReFrames : 4 frames
    Duration : 3mn 49s
    Bit rate : 3 864 Kbps
    Width : 1 920 pixels
    Height : 1 080 pixels
    Display aspect ratio : 16:9
    Frame rate : 25.000 fps
    Standard : Component
    Color space : YUV
    Chroma subsampling : 4:2:0
    Bit depth : 8 bits
    Scan type : MBAFF
    Scan type, store method : Interleaved fields
    Scan order : Top Field First
    Bits/(Pixel*Frame) : 0.075
    Stream size : 106 MiB (90%)

    Audio
    Format : AC-3
    Format/Info : Audio Coding 3
    Mode extension : CM (complete main)
    Format settings, Endianness : Big
    Duration : 3mn 50s
    Bit rate mode : Constant
    Bit rate : 192 Kbps
    Channel(s) : 2 channels
    Channel positions : Front: L R
    Sampling rate : 48.0 KHz
    Hidden Content:
    You must reply before you can see the hidden data contained here.
    Ellie Goulding - Beating Heart
    [​IMG]
    General
    Format : MPEG-TS
    File size : 101 MiB
    Duration : 3mn 41s
    Overall bit rate mode : Variable
    Overall bit rate : 3 773 Kbps

    Video
    Format : AVC
    Format/Info : Advanced Video Codec
    Format profile : [email protected]
    Format settings, CABAC : Yes
    Format settings, ReFrames : 4 frames
    Format settings, GOP : M=8, N=24
    Duration : 3mn 40s
    Bit rate : 3 393 Kbps
    Width : 1 920 pixels
    Height : 1 080 pixels
    Display aspect ratio : 16:9
    Frame rate : 25.000 fps
    Standard : Component
    Color space : YUV
    Chroma subsampling : 4:2:0
    Bit depth : 8 bits
    Scan type : MBAFF
    Scan type, store method : Interleaved fields
    Scan order : Top Field First
    Bits/(Pixel*Frame) : 0.065
    Stream size : 89.2 MiB (88%)

    Audio
    Format : AC-3
    Format/Info : Audio Coding 3
    Mode extension : CM (complete main)
    Format settings, Endianness : Big
    Duration : 3mn 42s
    Bit rate mode : Constant
    Bit rate : 192 Kbps
    Channel(s) : 2 channels
    Channel positions : Front: L R
    Sampling rate : 48.0 KHz
    Hidden Content:
    You must reply before you can see the hidden data contained here.
    Calvin Harris feat. Ellie Goulding - Outside
    [​IMG]
    General
    Format : MPEG-TS
    File size : 106 MiB
    Duration : 3mn 42s
    Overall bit rate mode : Variable
    Overall bit rate : 3 976 Kbps

    Video
    Format : AVC
    Format/Info : Advanced Video Codec
    Format profile : [email protected]
    Format settings, CABAC : Yes
    Format settings, ReFrames : 4 frames
    Duration : 3mn 41s
    Bit rate : 3 586 Kbps
    Width : 1 920 pixels
    Height : 1 080 pixels
    Display aspect ratio : 16:9
    Frame rate : 25.000 fps
    Standard : Component
    Color space : YUV
    Chroma subsampling : 4:2:0
    Bit depth : 8 bits
    Scan type : MBAFF
    Scan type, store method : Interleaved fields
    Scan order : Top Field First
    Bits/(Pixel*Frame) : 0.069
    Stream size : 94.6 MiB (89%)

    Audio
    Format : AC-3
    Format/Info : Audio Coding 3
    Mode extension : CM (complete main)
    Format settings, Endianness : Big
    Duration : 3mn 42s
    Bit rate mode : Constant
    Bit rate : 192 Kbps
    Channel(s) : 2 channels
    Channel positions : Front: L R
    Sampling rate : 48.0 KHz
    Hidden Content:
    You must reply before you can see the hidden data contained here.
    Major Lazer feat. Ellie Goulding & Tarrus Riley - Powerful
    [​IMG]
    General
    Format : MPEG-TS
    File size : 93.2 MiB
    Duration : 3mn 26s
    Overall bit rate mode : Variable
    Overall bit rate : 3 785 Kbps

    Video
    Format : AVC
    Format/Info : Advanced Video Codec
    Format profile : [email protected]
    Format settings, CABAC : Yes
    Format settings, ReFrames : 4 frames
    Duration : 3mn 26s
    Bit rate : 3 404 Kbps
    Width : 1 920 pixels
    Height : 1 080 pixels
    Display aspect ratio : 16:9
    Frame rate : 25.000 fps
    Standard : Component
    Color space : YUV
    Chroma subsampling : 4:2:0
    Bit depth : 8 bits
    Scan type : MBAFF
    Scan type, store method : Interleaved fields
    Scan order : Top Field First
    Bits/(Pixel*Frame) : 0.066
    Stream size : 83.8 MiB (90%)

    Audio
    Format : AC-3
    Format/Info : Audio Coding 3
    Mode extension : CM (complete main)
    Format settings, Endianness : Big
    Duration : 3mn 26s
    Bit rate mode : Constant
    Bit rate : 192 Kbps
    Channel(s) : 2 channels
    Channel positions : Front: L R
    Sampling rate : 48.0 KHz
    Hidden Content:
    You must reply before you can see the hidden data contained here.
    Ellie Goulding - On My Mind
    [​IMG]
    General
    Format : MPEG-TS
    File size : 165 MiB
    Duration : 3mn 43s
    Overall bit rate mode : Variable
    Overall bit rate : 6 162 Kbps

    Video
    Format : AVC
    Format/Info : Advanced Video Codec
    Format profile : [email protected]
    Format settings, CABAC : Yes
    Format settings, ReFrames : 4 frames
    Duration : 3mn 42s
    Bit rate : 5 664 Kbps
    Width : 1 920 pixels
    Height : 1 080 pixels
    Display aspect ratio : 16:9
    Frame rate : 25.000 fps
    Standard : Component
    Color space : YUV
    Chroma subsampling : 4:2:0
    Bit depth : 8 bits
    Scan type : MBAFF
    Scan type, store method : Interleaved fields
    Scan order : Top Field First
    Bits/(Pixel*Frame) : 0.109

    Audio
    Format : AC-3
    Format/Info : Audio Coding 3
    Mode extension : CM (complete main)
    Format settings, Endianness : Big
    Codec ID : 6
    Duration : 3mn 43s
    Bit rate mode : Constant
    Bit rate : 192 Kbps
    Channel(s) : 2 channels
    Channel positions : Front: L R
    Sampling rate : 48.0 KHz
    Hidden Content:
    You must reply before you can see the hidden data contained here.
     
    rhea, CELOBRAZiL and Dreamer like this.
  2. Loading...


  3. Snorom6

    Snorom6 Well-Known Member Uploader

    Joined:
    Dec 17, 2015
    Messages:
    4,245
    Likes Received:
    4,016
  4. dgnio

    dgnio Well-Known Member

    Joined:
    Jul 7, 2014
    Messages:
    1,609
    Likes Received:
    318
    thanks very much!
     
  5. z3with6pack

    z3with6pack Member

    Joined:
    Oct 11, 2015
    Messages:
    260
    Likes Received:
    8
    Thank You!
     
  6. Dreamer

    Dreamer Lana Del Rey ♥ Capper Uploader

    Joined:
    Dec 4, 2014
    Messages:
    2,413
    Likes Received:
    2,477
    Thank you so much! :)
     
  7. rhea

    rhea Well-Known Member

    Joined:
    Jan 6, 2014
    Messages:
    5,578
    Likes Received:
    340
    thank you so much! :)
     
  8. Joseph

    Joseph Active Member

    Joined:
    Dec 10, 2013
    Messages:
    740
    Likes Received:
    162
    thank you
     
  9. killers23

    killers23 Active Member

    Joined:
    Feb 27, 2015
    Messages:
    471
    Likes Received:
    68
    thanks for sharing
     
  10. Albano Salinas

    Albano Salinas Well-Known Member

    Joined:
    Nov 6, 2014
    Messages:
    452
    Likes Received:
    830
    thanks i love youuuu!.-
     
  11. slill

    slill Member

    Joined:
    Jul 25, 2014
    Messages:
    929
    Likes Received:
    11
    thanks.
     
  12. Koichi26

    Koichi26 New Member

    Joined:
    Jul 15, 2016
    Messages:
    10
    Likes Received:
    1
  13. zhxliveing

    zhxliveing Member

    Joined:
    Sep 7, 2016
    Messages:
    283
    Likes Received:
    12
    thank you
     
  14. BinhTVT

    BinhTVT Member

    Joined:
    Jun 30, 2015
    Messages:
    178
    Likes Received:
    3
    thank you very much
     
  15. Lucky

    Lucky Member

    Joined:
    Sep 26, 2016
    Messages:
    253
    Likes Received:
    16
    thanks