PACK Spéciale - Coldplay (NRJHITSHD-1080i-DD2.0-Olgold)-HDMania

Discussion in 'NRJ HITS' started by Olgold, Mar 31, 2016.

  1. Olgold

    Olgold Well-Known Member Capper

    Joined:
    Aug 19, 2015
    Messages:
    386
    Likes Received:
    1,312
    Password: Olgold

    Coldplay - Shiver
    [​IMG]
    General
    Format : MPEG-TS
    File size : 193 MiB
    Duration : 4mn 58s
    Overall bit rate mode : Variable
    Overall bit rate : 5 285 Kbps

    Video
    Format : AVC
    Format/Info : Advanced Video Codec
    Format profile : [email protected]
    Format settings, CABAC : Yes
    Format settings, ReFrames : 4 frames
    Format settings, GOP : M=8, N=24
    Duration : 4mn 57s
    Bit rate : 4 830 Kbps
    Width : 1 920 pixels
    Height : 1 080 pixels
    Display aspect ratio : 16:9
    Frame rate : 25.000 fps
    Standard : Component
    Color space : YUV
    Chroma subsampling : 4:2:0
    Bit depth : 8 bits
    Scan type : MBAFF
    Scan type, store method : Interleaved fields
    Scan order : Top Field First
    Bits/(Pixel*Frame) : 0.093
    Stream size : 171 MiB (89%)

    Audio
    Format : AC-3
    Format/Info : Audio Coding 3
    Mode extension : CM (complete main)
    Format settings, Endianness : Big
    Duration : 4mn 59s
    Bit rate mode : Constant
    Bit rate : 192 Kbps
    Channel(s) : 2 channels
    Channel positions : Front: L R
    Sampling rate : 48.0 KHz
    Hidden Content:
    You must reply before you can see the hidden data contained here.
    Coldplay - Yellow
    [​IMG]
    General
    Format : MPEG-TS
    File size : 102 MiB
    Duration : 4mn 28s
    Overall bit rate mode : Variable
    Overall bit rate : 3 068 Kbps

    Video
    Format : AVC
    Format/Info : Advanced Video Codec
    Format profile : [email protected]
    Format settings, CABAC : Yes
    Format settings, ReFrames : 4 frames
    Format settings, GOP : M=8, N=24
    Duration : 4mn 27s
    Bit rate : 2 723 Kbps
    Width : 1 920 pixels
    Height : 1 080 pixels
    Display aspect ratio : 16:9
    Frame rate : 25.000 fps
    Standard : Component
    Color space : YUV
    Chroma subsampling : 4:2:0
    Bit depth : 8 bits
    Scan type : MBAFF
    Scan type, store method : Interleaved fields
    Scan order : Top Field First
    Bits/(Pixel*Frame) : 0.053
    Stream size : 86.8 MiB (85%)

    Audio
    Format : AC-3
    Format/Info : Audio Coding 3
    Mode extension : CM (complete main)
    Format settings, Endianness : Big
    Duration : 4mn 29s
    Bit rate mode : Constant
    Bit rate : 192 Kbps
    Channel(s) : 2 channels
    Channel positions : Front: L R
    Sampling rate : 48.0 KHz
    Hidden Content:
    You must reply before you can see the hidden data contained here.
    Coldplay - Trouble
    [​IMG]
    General
    Format : MPEG-TS
    File size : 169 MiB
    Duration : 4mn 30s
    Overall bit rate mode : Variable
    Overall bit rate : 5 258 Kbps

    Video
    Format : AVC
    Format/Info : Advanced Video Codec
    Format profile : [email protected]
    Format settings, CABAC : Yes
    Format settings, ReFrames : 4 frames
    Duration : 4mn 30s
    Bit rate : 4 804 Kbps
    Width : 1 920 pixels
    Height : 1 080 pixels
    Display aspect ratio : 16:9
    Frame rate : 25.000 fps
    Standard : Component
    Color space : YUV
    Chroma subsampling : 4:2:0
    Bit depth : 8 bits
    Scan type : MBAFF
    Scan type, store method : Interleaved fields
    Scan order : Top Field First
    Bits/(Pixel*Frame) : 0.093
    Stream size : 155 MiB (91%)

    Audio
    Format : AC-3
    Format/Info : Audio Coding 3
    Mode extension : CM (complete main)
    Format settings, Endianness : Big
    Duration : 4mn 30s
    Bit rate mode : Constant
    Bit rate : 192 Kbps
    Channel(s) : 2 channels
    Channel positions : Front: L R
    Sampling rate : 48.0 KHz
    Hidden Content:
    You must reply before you can see the hidden data contained here.
    Coldplay - Don't Panic
    [​IMG]
    General
    Format : MPEG-TS
    File size : 139 MiB
    Duration : 3mn 11s
    Overall bit rate mode : Variable
    Overall bit rate : 6 109 Kbps

    Video
    Format : AVC
    Format/Info : Advanced Video Codec
    Format profile : [email protected]
    Format settings, CABAC : Yes
    Format settings, ReFrames : 4 frames
    Format settings, GOP : M=8, N=24
    Duration : 3mn 11s
    Bit rate : 5 613 Kbps
    Width : 1 920 pixels
    Height : 1 080 pixels
    Display aspect ratio : 16:9
    Frame rate : 25.000 fps
    Standard : Component
    Color space : YUV
    Chroma subsampling : 4:2:0
    Bit depth : 8 bits
    Scan type : MBAFF
    Scan type, store method : Interleaved fields
    Scan order : Top Field First
    Bits/(Pixel*Frame) : 0.108
    Stream size : 128 MiB (92%)

    Audio
    Format : AC-3
    Format/Info : Audio Coding 3
    Mode extension : CM (complete main)
    Format settings, Endianness : Big
    Duration : 3mn 11s
    Bit rate mode : Constant
    Bit rate : 192 Kbps
    Channel(s) : 2 channels
    Channel positions : Front: L R
    Hidden Content:
    You must reply before you can see the hidden data contained here.
    Coldplay - In My Place
    [​IMG]
    General
    Format : MPEG-TS
    File size : 130 MiB
    Duration : 3mn 46s
    Overall bit rate mode : Variable
    Overall bit rate : 4 797 Kbps

    Video
    Format : AVC
    Format/Info : Advanced Video Codec
    Format profile : [email protected]
    Format settings, CABAC : Yes
    Format settings, ReFrames : 4 frames
    Format settings, GOP : M=8, N=24
    Duration : 3mn 44s
    Bit rate : 4 366 Kbps
    Width : 1 920 pixels
    Height : 1 080 pixels
    Display aspect ratio : 16:9
    Frame rate : 25.000 fps
    Standard : Component
    Color space : YUV
    Chroma subsampling : 4:2:0
    Bit depth : 8 bits
    Scan type : MBAFF
    Scan type, store method : Interleaved fields
    Scan order : Top Field First
    Bits/(Pixel*Frame) : 0.084
    Stream size : 117 MiB (90%)

    Audio
    Format : AC-3
    Format/Info : Audio Coding 3
    Mode extension : CM (complete main)
    Format settings, Endianness : Big
    Duration : 3mn 46s
    Bit rate mode : Constant
    Bit rate : 192 Kbps
    Channel(s) : 2 channels
    Channel positions : Front: L R
    Sampling rate : 48.0 KHz
    Hidden Content:
    You must reply before you can see the hidden data contained here.
    Coldplay - The Scientist
    [​IMG]
    General
    Format : MPEG-TS
    File size : 160 MiB
    Duration : 4mn 24s
    Overall bit rate mode : Variable
    Overall bit rate : 5 064 Kbps

    Video
    Format : AVC
    Format/Info : Advanced Video Codec
    Format profile : [email protected]
    Format settings, CABAC : Yes
    Format settings, ReFrames : 4 frames
    Format settings, GOP : M=8, N=24
    Duration : 4mn 24s
    Bit rate : 4 620 Kbps
    Width : 1 920 pixels
    Height : 1 080 pixels
    Display aspect ratio : 16:9
    Frame rate : 25.000 fps
    Standard : Component
    Color space : YUV
    Chroma subsampling : 4:2:0
    Bit depth : 8 bits
    Scan type : MBAFF
    Scan type, store method : Interleaved fields
    Scan order : Top Field First
    Bits/(Pixel*Frame) : 0.089
    Stream size : 146 MiB (91%)

    Audio
    Format : AC-3
    Format/Info : Audio Coding 3
    Mode extension : CM (complete main)
    Format settings, Endianness : Big
    Duration : 4mn 24s
    Bit rate mode : Constant
    Bit rate : 192 Kbps
    Channel(s) : 2 channels
    Channel positions : Front: L R
    Sampling rate : 48.0 KHz
    Hidden Content:
    You must reply before you can see the hidden data contained here.
    Coldplay - Clocks
    [​IMG]
    General
    Format : MPEG-TS
    File size : 139 MiB
    Duration : 4mn 17s
    Overall bit rate mode : Variable
    Overall bit rate : 4 543 Kbps

    Video
    Format : AVC
    Format/Info : Advanced Video Codec
    Format profile : [email protected]
    Format settings, CABAC : Yes
    Format settings, ReFrames : 4 frames
    Duration : 4mn 17s
    Bit rate : 4 124 Kbps
    Width : 1 920 pixels
    Height : 1 080 pixels
    Display aspect ratio : 16:9
    Frame rate : 25.000 fps
    Standard : Component
    Color space : YUV
    Chroma subsampling : 4:2:0
    Bit depth : 8 bits
    Scan type : MBAFF
    Scan type, store method : Interleaved fields
    Scan order : Top Field First
    Bits/(Pixel*Frame) : 0.080
    Stream size : 126 MiB (91%)

    Audio
    Format : AC-3
    Format/Info : Audio Coding 3
    Mode extension : CM (complete main)
    Format settings, Endianness : Big
    Duration : 4mn 17s
    Bit rate mode : Constant
    Bit rate : 192 Kbps
    Channel(s) : 2 channels
    Channel positions : Front: L R
    Sampling rate : 48.0 KHz
    Hidden Content:
    You must reply before you can see the hidden data contained here.

    Coldplay - God Put A Smile Upon Your Face
    [​IMG]
    General
    Format : MPEG-TS
    File size : 123 MiB
    Duration : 4mn 56s
    Overall bit rate mode : Variable
    Overall bit rate : 3 488 Kbps

    Video
    Format : AVC
    Format/Info : Advanced Video Codec
    Format profile : [email protected]
    Format settings, CABAC : Yes
    Format settings, ReFrames : 4 frames
    Format settings, GOP : M=8, N=24
    Duration : 4mn 56s
    Bit rate : 3 121 Kbps
    Width : 1 920 pixels
    Height : 1 080 pixels
    Display aspect ratio : 16:9
    Frame rate : 25.000 fps
    Standard : Component
    Color space : YUV
    Chroma subsampling : 4:2:0
    Bit depth : 8 bits
    Scan type : MBAFF
    Scan type, store method : Interleaved fields
    Scan order : Top Field First
    Bits/(Pixel*Frame) : 0.060
    Stream size : 110 MiB (89%)

    Audio
    Format : AC-3
    Format/Info : Audio Coding 3
    Mode extension : CM (complete main)
    Format settings, Endianness : Big
    Duration : 4mn 56s
    Bit rate mode : Constant
    Bit rate : 192 Kbps
    Channel(s) : 2 channels
    Channel positions : Front: L R
    Sampling rate : 48.0 KHz
    Hidden Content:
    You must reply before you can see the hidden data contained here.
    Coldplay - Speed Of Sound
    [​IMG]
    General
    Format : MPEG-TS
    File size : 218 MiB
    Duration : 4mn 15s
    Overall bit rate mode : Variable
    Overall bit rate : 7 145 Kbps

    Video
    Format : AVC
    Format/Info : Advanced Video Codec
    Format profile : [email protected]
    Format settings, CABAC : Yes
    Format settings, ReFrames : 4 frames
    Duration : 4mn 15s
    Bit rate : 6 598 Kbps
    Width : 1 920 pixels
    Height : 1 080 pixels
    Display aspect ratio : 16:9
    Frame rate : 25.000 fps
    Standard : Component
    Color space : YUV
    Chroma subsampling : 4:2:0
    Bit depth : 8 bits
    Scan type : MBAFF
    Scan type, store method : Interleaved fields
    Scan order : Top Field First
    Bits/(Pixel*Frame) : 0.127
    Stream size : 201 MiB (92%)

    Audio
    Format : AC-3
    Format/Info : Audio Coding 3
    Mode extension : CM (complete main)
    Format settings, Endianness : Big
    Duration : 4mn 15s
    Bit rate mode : Constant
    Bit rate : 192 Kbps
    Channel(s) : 2 channels
    Channel positions : Front: L R
    Sampling rate : 48.0 KHz
    Hidden Content:
    You must reply before you can see the hidden data contained here.
    Coldplay - Fix You
    [​IMG]
    General
    Format : MPEG-TS
    File size : 195 MiB
    Duration : 4mn 53s
    Overall bit rate mode : Variable
    Overall bit rate : 5 575 Kbps

    Video
    Format : AVC
    Format/Info : Advanced Video Codec
    Format profile : [email protected]
    Format settings, CABAC : Yes
    Format settings, ReFrames : 4 frames
    Duration : 4mn 52s
    Bit rate : 5 105 Kbps
    Width : 1 920 pixels
    Height : 1 080 pixels
    Display aspect ratio : 16:9
    Frame rate : 25.000 fps
    Standard : Component
    Color space : YUV
    Chroma subsampling : 4:2:0
    Bit depth : 8 bits
    Scan type : MBAFF
    Scan type, store method : Interleaved fields
    Scan order : Top Field First
    Bits/(Pixel*Frame) : 0.098
    Stream size : 178 MiB (91%)

    Audio
    Format : AC-3
    Format/Info : Audio Coding 3
    Mode extension : CM (complete main)
    Format settings, Endianness : Big
    Duration : 4mn 53s
    Bit rate mode : Constant
    Bit rate : 192 Kbps
    Channel(s) : 2 channels
    Channel positions : Front: L R
    Sampling rate : 48.0 KHz
    Hidden Content:
    You must reply before you can see the hidden data contained here.
    Coldplay - Talk
    [​IMG]
    General
    Format : MPEG-TS
    File size : 233 MiB
    Duration : 4mn 55s
    Overall bit rate mode : Variable
    Overall bit rate : 6 508 Kbps

    Video
    Format : AVC
    Format/Info : Advanced Video Codec
    Format profile : [email protected]
    Format settings, CABAC : Yes
    Format settings, ReFrames : 4 frames
    Format settings, GOP : M=8, N=24
    Duration : 4mn 54s
    Bit rate : 5 992 Kbps
    Width : 1 920 pixels
    Height : 1 080 pixels
    Display aspect ratio : 16:9
    Frame rate : 25.000 fps
    Standard : Component
    Color space : YUV
    Chroma subsampling : 4:2:0
    Bit depth : 8 bits
    Scan type : MBAFF
    Scan type, store method : Interleaved fields
    Scan order : Top Field First
    Bits/(Pixel*Frame) : 0.116
    Stream size : 211 MiB (91%)

    Audio
    Format : AC-3
    Format/Info : Audio Coding 3
    Mode extension : CM (complete main)
    Format settings, Endianness : Big
    Duration : 4mn 56s
    Bit rate mode : Constant
    Bit rate : 192 Kbps
    Channel(s) : 2 channels
    Channel positions : Front: L R
    Sampling rate : 48.0 KHz
    Hidden Content:
    You must reply before you can see the hidden data contained here.
    Coldplay - The Hardest Part
    [​IMG]
    General
    Format : MPEG-TS
    File size : 254 MiB
    Duration : 4mn 50s
    Overall bit rate mode : Variable
    Overall bit rate : 7 343 Kbps

    Video
    Format : AVC
    Format/Info : Advanced Video Codec
    Format profile : [email protected]
    Format settings, CABAC : Yes
    Format settings, ReFrames : 4 frames
    Duration : 4mn 50s
    Bit rate : 6 787 Kbps
    Width : 1 920 pixels
    Height : 1 080 pixels
    Display aspect ratio : 16:9
    Frame rate : 25.000 fps
    Standard : Component
    Color space : YUV
    Chroma subsampling : 4:2:0
    Bit depth : 8 bits
    Scan type : MBAFF
    Scan type, store method : Interleaved fields
    Scan order : Top Field First
    Bits/(Pixel*Frame) : 0.131
    Stream size : 235 MiB (92%)

    Audio
    Format : AC-3
    Format/Info : Audio Coding 3
    Mode extension : CM (complete main)
    Format settings, Endianness : Big
    Duration : 4mn 50s
    Bit rate mode : Constant
    Bit rate : 192 Kbps
    Channel(s) : 2 channels
    Channel positions : Front: L R
    Sampling rate : 48.0 KHz
    Hidden Content:
    You must reply before you can see the hidden data contained here.
    Coldplay - Violet Hill
    [​IMG]
    General
    Format : MPEG-TS
    File size : 211 MiB
    Duration : 3mn 40s
    Overall bit rate mode : Variable
    Overall bit rate : 8 005 Kbps

    Video
    Format : AVC
    Format/Info : Advanced Video Codec
    Format profile : [email protected]
    Format settings, CABAC : Yes
    Format settings, ReFrames : 4 frames
    Duration : 3mn 40s
    Bit rate : 7 416 Kbps
    Width : 1 920 pixels
    Height : 1 080 pixels
    Display aspect ratio : 16:9
    Frame rate : 25.000 fps
    Standard : Component
    Color space : YUV
    Chroma subsampling : 4:2:0
    Bit depth : 8 bits
    Scan type : MBAFF
    Scan type, store method : Interleaved fields
    Scan order : Top Field First
    Bits/(Pixel*Frame) : 0.143
    Stream size : 195 MiB (93%)

    Audio
    Format : AC-3
    Format/Info : Audio Coding 3
    Mode extension : CM (complete main)
    Format settings, Endianness : Big
    Duration : 3mn 40s
    Bit rate mode : Constant
    Bit rate : 192 Kbps
    Channel(s) : 2 channels
    Channel positions : Front: L R
    Sampling rate : 48.0 KHz
    Hidden Content:
    You must reply before you can see the hidden data contained here.
    Coldplay - Viva La Vida
    [​IMG]
    General
    Format : MPEG-TS
    File size : 184 MiB
    Duration : 3mn 59s
    Overall bit rate mode : Variable
    Overall bit rate : 6 326 Kbps

    Video
    Format : AVC
    Format/Info : Advanced Video Codec
    Format profile : [email protected]
    Format settings, CABAC : Yes
    Format settings, ReFrames : 4 frames
    Format settings, GOP : M=8, N=24
    Duration : 3mn 58s
    Bit rate : 5 819 Kbps
    Width : 1 920 pixels
    Height : 1 080 pixels
    Display aspect ratio : 16:9
    Frame rate : 25.000 fps
    Standard : Component
    Color space : YUV
    Chroma subsampling : 4:2:0
    Bit depth : 8 bits
    Scan type : MBAFF
    Scan type, store method : Interleaved fields
    Scan order : Top Field First
    Bits/(Pixel*Frame) : 0.112
    Stream size : 166 MiB (90%)

    Audio
    Format : AC-3
    Format/Info : Audio Coding 3
    Mode extension : CM (complete main)
    Format settings, Endianness : Big
    Duration : 4mn 0s
    Bit rate mode : Constant
    Bit rate : 192 Kbps
    Channel(s) : 2 channels
    Channel positions : Front: L R
    Sampling rate : 48.0 KHz
    Hidden Content:
    You must reply before you can see the hidden data contained here.
    Coldplay - Lost
    [​IMG]
    General
    Format : MPEG-TS
    File size : 225 MiB
    Duration : 4mn 17s
    Overall bit rate mode : Variable
    Overall bit rate : 7 348 Kbps

    Video
    Format : AVC
    Format/Info : Advanced Video Codec
    Format profile : [email protected]
    Format settings, CABAC : Yes
    Format settings, ReFrames : 4 frames
    Duration : 4mn 17s
    Bit rate : 6 791 Kbps
    Width : 1 920 pixels
    Height : 1 080 pixels
    Display aspect ratio : 16:9
    Frame rate : 25.000 fps
    Standard : Component
    Color space : YUV
    Chroma subsampling : 4:2:0
    Bit depth : 8 bits
    Scan type : MBAFF
    Scan type, store method : Interleaved fields
    Scan order : Top Field First
    Bits/(Pixel*Frame) : 0.131
    Stream size : 208 MiB (92%)

    Audio
    Format : AC-3
    Format/Info : Audio Coding 3
    Mode extension : CM (complete main)
    Format settings, Endianness : Big
    Duration : 4mn 17s
    Bit rate mode : Constant
    Bit rate : 192 Kbps
    Channel(s) : 2 channels
    Channel positions : Front: L R
    Sampling rate : 48.0 KHz
    Hidden Content:
    You must reply before you can see the hidden data contained here.
    Coldplay - Lovers In Japan
    [​IMG]
    General
    Format : MPEG-TS
    File size : 257 MiB
    Duration : 3mn 57s
    Overall bit rate mode : Variable
    Overall bit rate : 9 065 Kbps

    Video
    Format : AVC
    Format/Info : Advanced Video Codec
    Format profile : [email protected]
    Format settings, CABAC : Yes
    Format settings, ReFrames : 4 frames
    Duration : 3mn 56s
    Bit rate : 8 424 Kbps
    Width : 1 920 pixels
    Height : 1 080 pixels
    Display aspect ratio : 16:9
    Frame rate : 25.000 fps
    Standard : Component
    Color space : YUV
    Chroma subsampling : 4:2:0
    Bit depth : 8 bits
    Scan type : MBAFF
    Scan type, store method : Interleaved fields
    Scan order : Top Field First
    Bits/(Pixel*Frame) : 0.162
    Stream size : 237 MiB (92%)

    Audio
    Format : AC-3
    Format/Info : Audio Coding 3
    Mode extension : CM (complete main)
    Format settings, Endianness : Big
    Duration : 3mn 57s
    Bit rate mode : Constant
    Bit rate : 192 Kbps
    Channel(s) : 2 channels
    Channel positions : Front: L R
    Sampling rate : 48.0 KHz
    Hidden Content:
    You must reply before you can see the hidden data contained here.
    Coldplay - Life In Technicolor ii
    [​IMG]
    General
    Format : MPEG-TS
    File size : 158 MiB
    Duration : 3mn 35s
    Overall bit rate mode : Variable
    Overall bit rate : 6 152 Kbps

    Video
    Format : AVC
    Format/Info : Advanced Video Codec
    Format profile : [email protected]
    Format settings, CABAC : Yes
    Format settings, ReFrames : 4 frames
    Duration : 3mn 35s
    Bit rate : 5 654 Kbps
    Width : 1 920 pixels
    Height : 1 080 pixels
    Display aspect ratio : 16:9
    Frame rate : 25.000 fps
    Standard : Component
    Color space : YUV
    Chroma subsampling : 4:2:0
    Bit depth : 8 bits
    Scan type : MBAFF
    Scan type, store method : Interleaved fields
    Scan order : Top Field First
    Bits/(Pixel*Frame) : 0.109
    Stream size : 145 MiB (92%)

    Audio
    Format : AC-3
    Format/Info : Audio Coding 3
    Mode extension : CM (complete main)
    Format settings, Endianness : Big
    Duration : 3mn 35s
    Bit rate mode : Constant
    Bit rate : 192 Kbps
    Channel(s) : 2 channels
    Channel positions : Front: L R
    Sampling rate : 48.0 KHz
    Hidden Content:
    You must reply before you can see the hidden data contained here.
    Coldplay - Strawberry Swing
    [​IMG]
    General
    Format : MPEG-TS
    File size : 232 MiB
    Duration : 4mn 1s
    Overall bit rate mode : Variable
    Overall bit rate : 7 892 Kbps

    Video
    Format : AVC
    Format/Info : Advanced Video Codec
    Format profile : [email protected]
    Format settings, CABAC : Yes
    Format settings, ReFrames : 4 frames
    Format settings, GOP : M=8, N=24
    Duration : 4mn 0s
    Bit rate : 7 308 Kbps
    Width : 1 920 pixels
    Height : 1 080 pixels
    Display aspect ratio : 16:9
    Frame rate : 25.000 fps
    Standard : Component
    Color space : YUV
    Chroma subsampling : 4:2:0
    Bit depth : 8 bits
    Scan type : MBAFF
    Scan type, store method : Interleaved fields
    Scan order : Top Field First
    Bits/(Pixel*Frame) : 0.141
    Stream size : 209 MiB (90%)

    Audio
    Format : AC-3
    Format/Info : Audio Coding 3
    Mode extension : CM (complete main)
    Format settings, Endianness : Big
    Duration : 4mn 2s
    Bit rate mode : Constant
    Bit rate : 192 Kbps
    Channel(s) : 2 channels
    Channel positions : Front: L R
    Sampling rate : 48.0 KHz
    Hidden Content:
    You must reply before you can see the hidden data contained here.
    Coldplay - Christmas Lights
    [​IMG]
    General
    Format : MPEG-TS
    File size : 183 MiB
    Duration : 4mn 18s
    Overall bit rate mode : Variable
    Overall bit rate : 5 933 Kbps

    Video
    Format : AVC
    Format/Info : Advanced Video Codec
    Format profile : [email protected]
    Format settings, CABAC : Yes
    Format settings, ReFrames : 4 frames
    Duration : 4mn 18s
    Bit rate : 5 446 Kbps
    Width : 1 920 pixels
    Height : 1 080 pixels
    Display aspect ratio : 16:9
    Frame rate : 25.000 fps
    Standard : Component
    Color space : YUV
    Chroma subsampling : 4:2:0
    Bit depth : 8 bits
    Scan type : MBAFF
    Scan type, store method : Interleaved fields
    Scan order : Top Field First
    Bits/(Pixel*Frame) : 0.105
    Stream size : 168 MiB (92%)

    Audio
    Format : AC-3
    Format/Info : Audio Coding 3
    Mode extension : CM (complete main)
    Format settings, Endianness : Big
    Duration : 4mn 18s
    Bit rate mode : Constant
    Bit rate : 192 Kbps
    Channel(s) : 2 channels
    Channel positions : Front: L R
    Sampling rate : 48.0 KHz
    Hidden Content:
    You must reply before you can see the hidden data contained here.
    Coldplay - Every Teardrop Is A Waterfall
    [​IMG]
    General
    Format : MPEG-TS
    File size : 278 MiB
    Duration : 3mn 58s
    Overall bit rate mode : Variable
    Overall bit rate : 9 653 Kbps

    Video
    Format : AVC
    Format/Info : Advanced Video Codec
    Format profile : [email protected]
    Format settings, CABAC : Yes
    Format settings, ReFrames : 4 frames
    Duration : 3mn 57s
    Bit rate : 8 982 Kbps
    Width : 1 920 pixels
    Height : 1 080 pixels
    Display aspect ratio : 16:9
    Frame rate : 25.000 fps
    Standard : Component
    Color space : YUV
    Chroma subsampling : 4:2:0
    Bit depth : 8 bits
    Scan type : MBAFF
    Scan type, store method : Interleaved fields
    Scan order : Top Field First
    Bits/(Pixel*Frame) : 0.173
    Stream size : 254 MiB (91%)

    Audio
    Format : AC-3
    Format/Info : Audio Coding 3
    Mode extension : CM (complete main)
    Format settings, Endianness : Big
    Duration : 3mn 59s
    Bit rate mode : Constant
    Bit rate : 192 Kbps
    Channel(s) : 2 channels
    Channel positions : Front: L R
    Sampling rate : 48.0 KHz
    Hidden Content:
    You must reply before you can see the hidden data contained here.
    Coldplay - Paradise
    [​IMG]
    General
    Format : MPEG-TS
    File size : 167 MiB
    Duration : 4mn 17s
    Overall bit rate mode : Variable
    Overall bit rate : 5 305 Kbps

    Video
    Format : AVC
    Format/Info : Advanced Video Codec
    Format profile : [email protected]
    Format settings, CABAC : Yes
    Format settings, ReFrames : 4 frames
    Duration : 4mn 16s
    Bit rate : 4 849 Kbps
    Width : 1 920 pixels
    Height : 1 080 pixels
    Display aspect ratio : 16:9
    Frame rate : 25.000 fps
    Standard : Component
    Color space : YUV
    Chroma subsampling : 4:2:0
    Bit depth : 8 bits
    Scan type : MBAFF
    Scan type, store method : Interleaved fields
    Scan order : Top Field First
    Bits/(Pixel*Frame) : 0.094
    Stream size : 148 MiB (89%)

    Audio
    Format : AC-3
    Format/Info : Audio Coding 3
    Mode extension : CM (complete main)
    Format settings, Endianness : Big
    Duration : 4mn 18s
    Bit rate mode : Constant
    Bit rate : 192 Kbps
    Channel(s) : 2 channels
    Channel positions : Front: L R
    Sampling rate : 48.0 KHz
    Hidden Content:
    You must reply before you can see the hidden data contained here.
    Coldplay - Paradise (Live)
    [​IMG]
    General
    Format : MPEG-TS
    File size : 357 MiB
    Duration : 4mn 44s
    Overall bit rate mode : Variable
    Overall bit rate : 10.5 Mbps

    Video
    Format : AVC
    Format/Info : Advanced Video Codec
    Format profile : [email protected]
    Format settings, CABAC : Yes
    Format settings, ReFrames : 4 frames
    Duration : 4mn 44s
    Bit rate : 9 796 Kbps
    Width : 1 920 pixels
    Height : 1 080 pixels
    Display aspect ratio : 16:9
    Frame rate : 25.000 fps
    Standard : Component
    Color space : YUV
    Chroma subsampling : 4:2:0
    Bit depth : 8 bits
    Scan type : MBAFF
    Scan type, store method : Interleaved fields
    Scan order : Top Field First
    Bits/(Pixel*Frame) : 0.189
    Stream size : 333 MiB (93%)

    Audio
    Format : AC-3
    Format/Info : Audio Coding 3
    Mode extension : CM (complete main)
    Format settings, Endianness : Big
    Duration : 4mn 44s
    Bit rate mode : Constant
    Bit rate : 192 Kbps
    Channel(s) : 2 channels
    Channel positions : Front: L R
    Sampling rate : 48.0 KHz
    Hidden Content:
    You must reply before you can see the hidden data contained here.
    Coldplay - Charlie Brown
    [​IMG]
    General
    Format : MPEG-TS
    File size : 260 MiB
    Duration : 4mn 44s
    Overall bit rate mode : Variable
    Overall bit rate : 7 643 Kbps

    Video
    Format : AVC
    Format/Info : Advanced Video Codec
    Format profile : [email protected]
    Format settings, CABAC : Yes
    Format settings, ReFrames : 4 frames
    Duration : 4mn 44s
    Bit rate : 7 071 Kbps
    Width : 1 920 pixels
    Height : 1 080 pixels
    Display aspect ratio : 16:9
    Frame rate : 25.000 fps
    Standard : Component
    Color space : YUV
    Chroma subsampling : 4:2:0
    Bit depth : 8 bits
    Scan type : MBAFF
    Scan type, store method : Interleaved fields
    Scan order : Top Field First
    Bits/(Pixel*Frame) : 0.136
    Stream size : 240 MiB (93%)

    Audio
    Format : AC-3
    Format/Info : Audio Coding 3
    Mode extension : CM (complete main)
    Format settings, Endianness : Big
    Duration : 4mn 44s
    Bit rate mode : Constant
    Bit rate : 192 Kbps
    Channel(s) : 2 channels
    Channel positions : Front: L R
    Sampling rate : 48.0 KHz
    Hidden Content:
    You must reply before you can see the hidden data contained here.
    Coldplay feat. Rihanna - Princess Of China
    [​IMG]
    General
    Format : MPEG-TS
    File size : 147 MiB
    Duration : 3mn 25s
    Overall bit rate mode : Variable
    Overall bit rate : 6 025 Kbps

    Video
    Format : AVC
    Format/Info : Advanced Video Codec
    Format profile : [email protected]
    Format settings, CABAC : Yes
    Format settings, ReFrames : 4 frames
    Duration : 3mn 25s
    Bit rate : 5 533 Kbps
    Width : 1 920 pixels
    Height : 1 080 pixels
    Display aspect ratio : 16:9
    Frame rate : 25.000 fps
    Standard : Component
    Color space : YUV
    Chroma subsampling : 4:2:0
    Bit depth : 8 bits
    Scan type : MBAFF
    Scan type, store method : Interleaved fields
    Scan order : Top Field First
    Bits/(Pixel*Frame) : 0.107
    Stream size : 135 MiB (92%)

    Audio
    Format/Info : Audio Coding 3
    Mode extension : CM (complete main)
    Format settings, Endianness : Big
    Duration : 3mn 25s
    Bit rate mode : Constant
    Bit rate : 192 Kbps
    Channel(s) : 2 channels
    Channel positions : Front: L R
    Sampling rate : 48.0 KHz
    Hidden Content:
    You must reply before you can see the hidden data contained here.
    Coldplay - Magic
    [​IMG]
    General
    Format : MPEG-TS
    File size : 323 MiB
    Duration : 4mn 41s
    Overall bit rate mode : Variable
    Overall bit rate : 9 617 Kbps

    Video
    Format : AVC
    Format/Info : Advanced Video Codec
    Format profile : [email protected]
    Format settings, CABAC : Yes
    Format settings, ReFrames : 4 frames
    Duration : 4mn 41s
    Bit rate : 8 948 Kbps
    Width : 1 920 pixels
    Height : 1 080 pixels
    Display aspect ratio : 16:9
    Frame rate : 25.000 fps
    Standard : Component
    Color space : YUV
    Chroma subsampling : 4:2:0
    Bit depth : 8 bits
    Scan type : MBAFF
    Scan type, store method : Interleaved fields
    Scan order : Top Field First
    Bits/(Pixel*Frame) : 0.173
    Stream size : 300 MiB (93%)

    Audio
    Format : AC-3
    Format/Info : Audio Coding 3
    Mode extension : CM (complete main)
    Format settings, Endianness : Big
    Duration : 4mn 41s
    Bit rate mode : Constant
    Bit rate : 192 Kbps
    Channel(s) : 2 channels
    Channel positions : Front: L R
    Sampling rate : 48.0 KHz
    Hidden Content:
    You must reply before you can see the hidden data contained here.
    Coldplay - A Sky Full Of Stars
    [​IMG]
    General
    Format : MPEG-TS
    File size : 277 MiB
    Duration : 4mn 9s
    Overall bit rate mode : Variable
    Overall bit rate : 9 317 Kbps

    Video
    Format : AVC
    Format/Info : Advanced Video Codec
    Format profile : [email protected]
    Format settings, CABAC : Yes
    Format settings, ReFrames : 4 frames
    Duration : 4mn 9s
    Bit rate : 8 663 Kbps
    Width : 1 920 pixels
    Height : 1 080 pixels
    Display aspect ratio : 16:9
    Frame rate : 25.000 fps
    Standard : Component
    Color space : YUV
    Chroma subsampling : 4:2:0
    Bit depth : 8 bits
    Scan type : MBAFF
    Scan type, store method : Interleaved fields
    Scan order : Top Field First
    Bits/(Pixel*Frame) : 0.167
    Stream size : 258 MiB (93%)

    Audio
    Format : AC-3
    Format/Info : Audio Coding 3
    Mode extension : CM (complete main)
    Format settings, Endianness : Big
    Duration : 4mn 9s
    Bit rate mode : Constant
    Bit rate : 192 Kbps
    Channel(s) : 2 channels
    Channel positions : Front: L R
    Sampling rate : 48.0 KHz
    Hidden Content:
    You must reply before you can see the hidden data contained here.
    Coldplay - True Love
    [​IMG]
    General
    Format : MPEG-TS
    File size : 205 MiB
    Duration : 4mn 12s
    Overall bit rate mode : Variable
    Overall bit rate : 6 809 Kbps

    Video
    Format : AVC
    Format/Info : Advanced Video Codec
    Format profile : [email protected]
    Format settings, CABAC : Yes
    Format settings, ReFrames : 4 frames
    Duration : 4mn 12s
    Bit rate : 6 279 Kbps
    Width : 1 920 pixels
    Height : 1 080 pixels
    Display aspect ratio : 16:9
    Frame rate : 25.000 fps
    Standard : Component
    Color space : YUV
    Chroma subsampling : 4:2:0
    Bit depth : 8 bits
    Scan type : MBAFF
    Scan type, store method : Interleaved fields
    Scan order : Top Field First
    Bits/(Pixel*Frame) : 0.121
    Stream size : 189 MiB (92%)

    Audio
    Format : AC-3
    Format/Info : Audio Coding 3
    Mode extension : CM (complete main)
    Format settings, Endianness : Big
    Duration : 4mn 12s
    Bit rate mode : Constant
    Bit rate : 192 Kbps
    Channel(s) : 2 channels
    Channel positions : Front: L R
    Sampling rate : 48.0 KHz
    Hidden Content:
    You must reply before you can see the hidden data contained here.
    Coldplay - Adventure Of A Lifetime
    [​IMG]
    General
    Format : MPEG-TS
    File size : 317 MiB
    Duration : 4mn 30s
    Overall bit rate mode : Variable
    Overall bit rate : 9 830 Kbps

    Video
    Format : AVC
    Format/Info : Advanced Video Codec
    Format profile : [email protected]
    Format settings, CABAC : Yes
    Format settings, ReFrames : 4 frames
    Duration : 4mn 30s
    Bit rate : 9 150 Kbps
    Width : 1 920 pixels
    Height : 1 080 pixels
    Display aspect ratio : 16:9
    Frame rate : 25.000 fps
    Standard : Component
    Color space : YUV
    Chroma subsampling : 4:2:0
    Bit depth : 8 bits
    Scan type : MBAFF
    Scan type, store method : Interleaved fields
    Scan order : Top Field First
    Bits/(Pixel*Frame) : 0.177
    Stream size : 295 MiB (93%)

    Audio
    Format : AC-3
    Format/Info : Audio Coding 3
    Mode extension : CM (complete main)
    Format settings, Endianness : Big
    Duration : 4mn 30s
    Bit rate mode : Constant
    Bit rate : 192 Kbps
    Channel(s) : 2 channels
    Channel positions : Front: L R
    Sampling rate : 48.0 KHz
    Hidden Content:
    You must reply before you can see the hidden data contained here.
    Coldplay feat. Beyonce - Hymn For The Weekend
    [​IMG]
    General
    Format : MPEG-TS
    File size : 194 MiB
    Duration : 4mn 18s
    Overall bit rate mode : Variable
    Overall bit rate : 6 299 Kbps

    Video
    Format : AVC
    Format/Info : Advanced Video Codec
    Format profile : [email protected]
    Format settings, CABAC : Yes
    Format settings, ReFrames : 4 frames
    Duration : 4mn 18s
    Bit rate : 5 794 Kbps
    Width : 1 920 pixels
    Height : 1 080 pixels
    Display aspect ratio : 16:9
    Frame rate : 25.000 fps
    Standard : Component
    Color space : YUV
    Chroma subsampling : 4:2:0
    Bit depth : 8 bits
    Scan type : MBAFF
    Scan type, store method : Interleaved fields
    Scan order : Top Field First
    Bits/(Pixel*Frame) : 0.112
    Stream size : 179 MiB (92%)

    Audio
    Format : AC-3
    Format/Info : Audio Coding 3
    Mode extension : CM (complete main)
    Format settings, Endianness : Big
    Duration : 4mn 18s
    Bit rate mode : Constant
    Bit rate : 192 Kbps
    Channel(s) : 2 channels
    Channel positions : Front: L R
    Sampling rate : 48.0 KHz
    Hidden Content:
    You must reply before you can see the hidden data contained here.
    Coldplay - Up&Up
    [​IMG]
    General
    Format : MPEG-TS
    File size : 227 MiB
    Duration : 3mn 57s
    Overall bit rate mode : Variable
    Overall bit rate : 7 845 Kbps

    Video
    Format : AVC
    Format/Info : Advanced Video Codec
    Format profile : [email protected]
    Format settings, CABAC : Yes
    Format settings, ReFrames : 4 frames
    Duration : 3mn 56s
    Bit rate : 7 264 Kbps
    Width : 1 920 pixels
    Height : 1 080 pixels
    Display aspect ratio : 16:9
    Frame rate : 25.000 fps
    Standard : Component
    Color space : YUV
    Chroma subsampling : 4:2:0
    Bit depth : 8 bits
    Scan type : MBAFF
    Scan type, store method : Interleaved fields
    Scan order : Top Field First
    Bits/(Pixel*Frame) : 0.140
    Stream size : 205 MiB (90%)

    Audio
    Format : AC-3
    Format/Info : Audio Coding 3
    Mode extension : CM (complete main)
    Format settings, Endianness : Big
    Duration : 3mn 58s
    Bit rate mode : Constant
    Bit rate : 192 Kbps
    Channel(s) : 2 channels
    Channel positions : Front: L R
    Sampling rate : 48.0 KHz
    Hidden Content:
    You must reply before you can see the hidden data contained here.
     
    Last edited: May 23, 2016
    gianpierocold, momo61, rhea and 4 others like this.
  2. Loading...


  3. 777josem

    777josem Well-Known Member Uploader

    Joined:
    Sep 1, 2014
    Messages:
    2,429
    Likes Received:
    1,299
    Thank you so much!
     
  4. Dreamer

    Dreamer ♫ It's Britney Bitch ♫ Capper Uploader

    Joined:
    Dec 4, 2014
    Messages:
    2,230
    Likes Received:
    1,961
    Thank you so much! :D
     
  5. channel003

    channel003 Active Member

    Joined:
    Nov 23, 2013
    Messages:
    517
    Likes Received:
    208
    Thank you so much !!!
     
  6. rhea

    rhea Well-Known Member

    Joined:
    Jan 6, 2014
    Messages:
    5,280
    Likes Received:
    253
    thank you so much! :)
     
  7. Albano Salinas

    Albano Salinas Well-Known Member

    Joined:
    Nov 6, 2014
    Messages:
    445
    Likes Received:
    785
    OMG! I'm in HEAVEN! Thanks so much!.-
     
  8. Joseph

    Joseph Active Member

    Joined:
    Dec 10, 2013
    Messages:
    729
    Likes Received:
    148
    thank you!
     
  9. alvin

    alvin Member

    Joined:
    May 11, 2014
    Messages:
    198
    Likes Received:
    12
    thank you
     
  10. killers23

    killers23 Active Member

    Joined:
    Feb 27, 2015
    Messages:
    434
    Likes Received:
    63
    thanks for sharing
     
  11. lalo_fashion

    lalo_fashion Member

    Joined:
    Mar 28, 2014
    Messages:
    56
    Likes Received:
    5
    thank you !!!
     
  12. tknobi

    tknobi Well-Known Member

    Joined:
    Feb 22, 2014
    Messages:
    363
    Likes Received:
    541
    thank you ! ;)
     
  13. misstiss

    misstiss Member

    Joined:
    Apr 24, 2014
    Messages:
    77
    Likes Received:
    6
    thanks so much
     
  14. zemino

    zemino Member

    Joined:
    Apr 26, 2014
    Messages:
    113
    Likes Received:
    1
    thank you
     
  15. dersullana

    dersullana Active Member

    Joined:
    Dec 21, 2015
    Messages:
    485
    Likes Received:
    34
  16. Regis

    Regis Active Member

    Joined:
    Jul 14, 2015
    Messages:
    997
    Likes Received:
    25
    thanks so much
     
  17. Jrec

    Jrec Member

    Joined:
    May 11, 2016
    Messages:
    610
    Likes Received:
    23
    Tha
    Thanks
     
  18. slill

    slill Member

    Joined:
    Jul 25, 2014
    Messages:
    910
    Likes Received:
    9
    thanks
     
  19. salvatore666

    salvatore666 New Member

    Joined:
    May 21, 2016
    Messages:
    25
    Likes Received:
    4
    great collection grrrrrrrrrrrrrrracias
     
  20. sylvieyunjae

    sylvieyunjae Member

    Joined:
    Feb 29, 2016
    Messages:
    65
    Likes Received:
    3
    cool !! thankksss
     
  21. deathstroke

    deathstroke Member

    Joined:
    Nov 13, 2015
    Messages:
    83
    Likes Received:
    5