PACK Spéciale - Bruno Mars (NRJHITSHD-1080i-DD2.0-Olgold)-HDMania

Discussion in 'NRJ HITS' started by Olgold, Apr 17, 2016.

  1. Lucky

    Lucky Active Member

    Joined:
    Sep 26, 2016
    Messages:
    503
    Likes Received:
    43
    thanks
     
  2. bugmenot

    bugmenot Member

    Joined:
    Nov 17, 2016
    Messages:
    271
    Likes Received:
    7
    thank you
     
  3. Praveen867

    Praveen867 Member

    Joined:
    Nov 14, 2016
    Messages:
    611
    Likes Received:
    19
    Bruno Mars
     
  4. aturner18

    aturner18 Well-Known Member

    Joined:
    Oct 2, 2014
    Messages:
    1,505
    Likes Received:
    141
  5. rcj

    rcj Member

    Joined:
    May 11, 2016
    Messages:
    575
    Likes Received:
    23
    Thank U!
     
  6. DiVenturas

    DiVenturas Well-Known Member

    Joined:
    Oct 21, 2015
    Messages:
    2,755
    Likes Received:
    157
  7. hilario_felipe

    hilario_felipe New Member

    Joined:
    Apr 19, 2017
    Messages:
    4
    Likes Received:
    0
    incredible
    !
     
  8. thepasco

    thepasco Member

    Joined:
    May 26, 2017
    Messages:
    79
    Likes Received:
    2
    bnnmmmm
     
  9. zyao

    zyao Member

    Joined:
    Oct 12, 2016
    Messages:
    364
    Likes Received:
    9
    thanks
     
  10. lyana94

    lyana94 Well-Known Member

    Joined:
    Jul 5, 2017
    Messages:
    1,482
    Likes Received:
    53
    tha
    nks
     
  11. degel_86

    degel_86 Member

    Joined:
    Aug 24, 2017
    Messages:
    86
    Likes Received:
    6
    chevere thankssss videos
     
  12. NiceBoy

    NiceBoy Member

    Joined:
    May 20, 2016
    Messages:
    236
    Likes Received:
    5
    Many Thanks
     
  13. jonasla

    jonasla Member

    Joined:
    Apr 16, 2016
    Messages:
    114
    Likes Received:
    3
    fapdo re fapdo
     
  14. chernan

    chernan Member

    Joined:
    Dec 28, 2016
    Messages:
    54
    Likes Received:
    12
    thANKS

    B.o.B feat. Bruno Mars - Nothin' On You
    [​IMG]
    General
    Format : MPEG-TS
    File size : 141 MiB
    Duration : 3mn 26s
    Overall bit rate mode : Variable
    Overall bit rate : 5 672 Kbps

    Video
    Format : AVC
    Format/Info : Advanced Video Codec
    Format profile : High@L4
    Format settings, CABAC : Yes
    Format settings, ReFrames : 4 frames
    Duration : 3mn 25s
    Bit rate : 5 198 Kbps
    Width : 1 920 pixels
    Height : 1 080 pixels
    Display aspect ratio : 16:9
    Frame rate : 25.000 fps
    Standard : Component
    Color space : YUV
    Chroma subsampling : 4:2:0
    Bit depth : 8 bits
    Scan type : MBAFF
    Scan type, store method : Interleaved fields
    Scan order : Top Field First
    Bits/(Pixel*Frame) : 0.100
    Stream size : 127 MiB (90%)

    Audio
    Format : AC-3
    Format/Info : Audio Coding 3
    Mode extension : CM (complete main)
    Format settings, Endianness : Big
    Duration : 3mn 26s
    Bit rate mode : Constant
    Bit rate : 192 Kbps
    Channel(s) : 2 channels
    Channel positions : Front: L R
    Sampling rate : 48.0 KHz
    ***Hidden content cannot be quoted.***

    Travie McCoy feat. Bruno Mars - Billionaire
    [​IMG]
    General
    Format : MPEG-TS
    File size : 152 MiB
    Duration : 3mn 31s
    Overall bit rate mode : Variable
    Overall bit rate : 6 035 Kbps

    Video
    Format : AVC
    Format/Info : Advanced Video Codec
    Format profile : High@L4
    Format settings, CABAC : Yes
    Format settings, ReFrames : 4 frames
    Duration : 3mn 31s
    Bit rate : 5 543 Kbps
    Width : 1 920 pixels
    Height : 1 080 pixels
    Display aspect ratio : 16:9
    Frame rate : 25.000 fps
    Standard : Component
    Color space : YUV
    Chroma subsampling : 4:2:0
    Bit depth : 8 bits
    Scan type : MBAFF
    Scan type, store method : Interleaved fields
    Scan order : Top Field First
    Bits/(Pixel*Frame) : 0.107
    Stream size : 140 MiB (92%)

    Audio
    Format : AC-3
    Format/Info : Audio Coding 3
    Mode extension : CM (complete main)
    Format settings, Endianness : Big
    Duration : 3mn 31s
    Bit rate mode : Constant
    Bit rate : 192 Kbps
    Channel(s) : 2 channels
    Channel positions : Front: L R
    Sampling rate : 48.0 KHz
    ***Hidden content cannot be quoted.***

    Bruno Mars feat. Cee Lo Green & B.o.B - The Other Side
    [​IMG]
    General
    Format : MPEG-TS
    File size : 141 MiB
    Duration : 3mn 43s
    Overall bit rate mode : Variable
    Overall bit rate : 5 163 Kbps

    Video
    Format : AVC
    Format/Info : Advanced Video Codec
    Format profile : High@L4
    Format settings, CABAC : Yes
    Format settings, ReFrames : 4 frames
    Duration : 3mn 42s
    Bit rate : 4 714 Kbps
    Width : 1 920 pixels
    Height : 1 080 pixels
    Display aspect ratio : 16:9
    Frame rate : 25.000 fps
    Standard : Component
    Color space : YUV
    Chroma subsampling : 4:2:0
    Bit depth : 8 bits
    Scan type : MBAFF
    Scan type, store method : Interleaved fields
    Scan order : Top Field First
    Bits/(Pixel*Frame) : 0.091
    Stream size : 125 MiB (89%)

    Audio
    Format : AC-3
    Format/Info : Audio Coding 3
    Mode extension : CM (complete main)
    Format settings, Endianness : Big
    Duration : 3mn 44s
    Bit rate mode : Constant
    Bit rate : 192 Kbps
    Channel(s) : 2 channels
    Channel positions : Front: L R
    Sampling rate : 48.0 KHz
    ***Hidden content cannot be quoted.***

    Bruno Mars - Just The Way You Are
    [​IMG]
    General
    Format : MPEG-TS
    File size : 149 MiB
    Duration : 3mn 34s
    Overall bit rate mode : Variable
    Overall bit rate : 5 841 Kbps

    Video
    Format : AVC
    Format/Info : Advanced Video Codec
    Format profile : High@L4
    Format settings, CABAC : Yes
    Format settings, ReFrames : 4 frames
    Duration : 3mn 34s
    Bit rate : 5 359 Kbps
    Width : 1 920 pixels
    Height : 1 080 pixels
    Display aspect ratio : 16:9
    Frame rate : 25.000 fps
    Standard : Component
    Color space : YUV
    Chroma subsampling : 4:2:0
    Bit depth : 8 bits
    Scan type : MBAFF
    Scan type, store method : Interleaved fields
    Scan order : Top Field First
    Bits/(Pixel*Frame) : 0.103
    Stream size : 137 MiB (92%)

    Audio
    Format : AC-3
    Format/Info : Audio Coding 3
    Mode extension : CM (complete main)
    Format settings, Endianness : Big
    Duration : 3mn 34s
    Bit rate mode : Constant
    Bit rate : 192 Kbps
    Channel(s) : 2 channels
    Channel positions : Front: L R
    Sampling rate : 48.0 KHz
    ***Hidden content cannot be quoted.***

    Bruno Mars - Grenade
    [​IMG]
    General
    Format : MPEG-TS
    File size : 106 MiB
    Duration : 3mn 29s
    Overall bit rate mode : Variable
    Overall bit rate : 4 081 Kbps

    Video
    Format : AVC
    Format/Info : Advanced Video Codec
    Format profile : High@L4
    Format settings, CABAC : Yes
    Format settings, ReFrames : 4 frames
    Format settings, GOP : M=8, N=24
    Duration : 3mn 28s
    Bit rate : 3 686 Kbps
    Width : 1 920 pixels
    Height : 1 080 pixels
    Display aspect ratio : 16:9
    Frame rate : 25.000 fps
    Standard : Component
    Color space : YUV
    Chroma subsampling : 4:2:0
    Bit depth : 8 bits
    Scan type : MBAFF
    Scan type, store method : Interleaved fields
    Scan order : Top Field First
    Bits/(Pixel*Frame) : 0.071
    Stream size : 91.4 MiB (87%)

    Audio
    Format : AC-3
    Format/Info : Audio Coding 3
    Mode extension : CM (complete main)
    Format settings, Endianness : Big
    Duration : 3mn 30s
    Bit rate mode : Constant
    Bit rate : 192 Kbps
    Channel(s) : 2 channels
    Channel positions : Front: L R
    Sampling rate : 48.0 KHz
    ***Hidden content cannot be quoted.***

    Bruno Mars feat. Damian Marley - Liquor Store Blues
    [​IMG]
    General
    Format : MPEG-TS
    File size : 223 MiB
    Duration : 3mn 49s
    Overall bit rate mode : Variable
    Overall bit rate : 8 148 Kbps

    Video
    Format : AVC
    Format/Info : Advanced Video Codec
    Format profile : High@L4
    Format settings, CABAC : Yes
    Format settings, ReFrames : 4 frames
    Duration : 3mn 49s
    Bit rate : 7 552 Kbps
    Width : 1 920 pixels
    Height : 1 080 pixels
    Display aspect ratio : 16:9
    Frame rate : 25.000 fps
    Standard : Component
    Color space : YUV
    Chroma subsampling : 4:2:0
    Bit depth : 8 bits
    Scan type : MBAFF
    Scan type, store method : Interleaved fields
    Scan order : Top Field First
    Bits/(Pixel*Frame) : 0.146
    Stream size : 207 MiB (93%)

    Audio
    Format : AC-3
    Format/Info : Audio Coding 3
    Mode extension : CM (complete main)
    Format settings, Endianness : Big
    Duration : 3mn 49s
    Bit rate mode : Constant
    Bit rate : 192 Kbps
    Channel(s) : 2 channels
    Channel positions : Front: L R
    Sampling rate : 48.0 KHz
    ***Hidden content cannot be quoted.***

    Bruno Mars - The Lazy Song
    [​IMG]
    General
    Format : MPEG-TS
    File size : 133 MiB
    Duration : 3mn 9s
    Overall bit rate mode : Variable
    Overall bit rate : 5 885 Kbps

    Video
    Format : AVC
    Format/Info : Advanced Video Codec
    Format profile : High@L4
    Format settings, CABAC : Yes
    Format settings, ReFrames : 4 frames
    Duration : 3mn 9s
    Bit rate : 5 400 Kbps
    Width : 1 920 pixels
    Height : 1 080 pixels
    Display aspect ratio : 16:9
    Frame rate : 25.000 fps
    Standard : Component
    Color space : YUV
    Chroma subsampling : 4:2:0
    Bit depth : 8 bits
    Scan type : MBAFF
    Scan type, store method : Interleaved fields
    Scan order : Top Field First
    Bits/(Pixel*Frame) : 0.104
    Stream size : 122 MiB (92%)

    Audio
    Format : AC-3
    Format/Info : Audio Coding 3
    Mode extension : CM (complete main)
    Format settings, Endianness : Big
    Duration : 3mn 9s
    Bit rate mode : Constant
    Bit rate : 192 Kbps
    Channel(s) : 2 channels
    Channel positions : Front: L R
    Sampling rate : 48.0 KHz
    ***Hidden content cannot be quoted.***

    Bad Meets Evil feat. Bruno Mars - Lighters
    [​IMG]
    General
    Format : MPEG-TS
    File size : 144 MiB
    Duration : 5mn 3s
    Overall bit rate mode : Variable
    Overall bit rate : 3 971 Kbps

    Video
    Format : AVC
    Format/Info : Advanced Video Codec
    Format profile : High@L4
    Format settings, CABAC : Yes
    Format settings, ReFrames : 4 frames
    Duration : 5mn 3s
    Bit rate : 3 581 Kbps
    Width : 1 920 pixels
    Height : 1 080 pixels
    Display aspect ratio : 16:9
    Frame rate : 25.000 fps
    Standard : Component
    Color space : YUV
    Chroma subsampling : 4:2:0
    Bit depth : 8 bits
    Scan type : MBAFF
    Scan type, store method : Interleaved fields
    Scan order : Top Field First
    Bits/(Pixel*Frame) : 0.069
    Stream size : 129 MiB (90%)

    Audio
    Format : AC-3
    Format/Info : Audio Coding 3
    Mode extension : CM (complete main)
    Format settings, Endianness : Big
    Duration : 5mn 3s
    Bit rate mode : Constant
    Bit rate : 192 Kbps
    Channel(s) : 2 channels
    Channel positions : Front: L R
    Sampling rate : 48.0 KHz
    ***Hidden content cannot be quoted.***

    Bruno Mars - It Will Rain
    [​IMG]
    General
    Format : MPEG-TS
    File size : 136 MiB
    Duration : 4mn 12s
    Overall bit rate mode : Variable
    Overall bit rate : 4 502 Kbps

    Video
    Format : AVC
    Format/Info : Advanced Video Codec
    Format profile : High@L4
    Format settings, CABAC : Yes
    Format settings, ReFrames : 4 frames
    Duration : 4mn 10s
    Bit rate : 4 086 Kbps
    Width : 1 920 pixels
    Height : 1 080 pixels
    Display aspect ratio : 16:9
    Frame rate : 25.000 fps
    Standard : Component
    Color space : YUV
    Chroma subsampling : 4:2:0
    Bit depth : 8 bits
    Scan type : MBAFF
    Scan type, store method : Interleaved fields
    Scan order : Top Field First
    Bits/(Pixel*Frame) : 0.079
    Stream size : 122 MiB (90%)

    Audio
    Format : AC-3
    Format/Info : Audio Coding 3
    Mode extension : CM (complete main)
    Format settings, Endianness : Big
    Duration : 4mn 12s
    Bit rate mode : Constant
    Bit rate : 192 Kbps
    Channel(s) : 2 channels
    Channel positions : Front: L R
    Sampling rate : 48.0 KHz
    ***Hidden content cannot be quoted.***

    Lil Wayne feat. Bruno Mars - Mirror
    [​IMG]
    General
    Format : MPEG-TS
    File size : 151 MiB
    Duration : 3mn 48s
    Overall bit rate mode : Variable
    Overall bit rate : 5 530 Kbps

    Video
    Format : AVC
    Format/Info : Advanced Video Codec
    Format profile : High@L4
    Format settings, CABAC : Yes
    Format settings, ReFrames : 4 frames
    Duration : 3mn 47s
    Bit rate : 5 063 Kbps
    Width : 1 920 pixels
    Height : 1 080 pixels
    Display aspect ratio : 16:9
    Frame rate : 25.000 fps
    Standard : Component
    Color space : YUV
    Chroma subsampling : 4:2:0
    Bit depth : 8 bits
    Scan type : MBAFF
    Scan type, store method : Interleaved fields
    Scan order : Top Field First
    Bits/(Pixel*Frame) : 0.098
    Stream size : 137 MiB (91%)

    Audio
    Format : AC-3
    Format/Info : Audio Coding 3
    Mode extension : CM (complete main)
    Format settings, Endianness : Big
    Duration : 3mn 48s
    Bit rate mode : Constant
    Bit rate : 192 Kbps
    Channel(s) : 2 channels
    Channel positions : Front: L R
    Sampling rate : 48.0 KHz
    ***Hidden content cannot be quoted.***

    Bruno Mars - Locked Out Of Heaven
    [​IMG]
    General
    Format : MPEG-TS
    File size : 218 MiB
    Duration : 3mn 48s
    Overall bit rate mode : Variable
    Overall bit rate : 7 994 Kbps

    Video
    Format : AVC
    Format/Info : Advanced Video Codec
    Format profile : High@L4
    Format settings, CABAC : Yes
    Format settings, ReFrames : 4 frames
    Duration : 3mn 46s
    Bit rate : 7 405 Kbps
    Width : 1 920 pixels
    Height : 1 080 pixels
    Display aspect ratio : 16:9
    Frame rate : 25.000 fps
    Standard : Component
    Color space : YUV
    Chroma subsampling : 4:2:0
    Bit depth : 8 bits
    Scan type : MBAFF
    Scan type, store method : Interleaved fields
    Scan order : Top Field First
    Bits/(Pixel*Frame) : 0.143
    Stream size : 200 MiB (92%)

    Audio
    Format : AC-3
    Format/Info : Audio Coding 3
    Mode extension : CM (complete main)
    Format settings, Endianness : Big
    Duration : 3mn 47s
    Bit rate mode : Constant
    Bit rate : 192 Kbps
    Channel(s) : 2 channels
    Channel positions : Front: L R
    Sampling rate : 48.0 KHz
    ***Hidden content cannot be quoted.***

    Bruno Mars - When I Was Your Man
    [​IMG]
    General
    Format : MPEG-TS
    File size : 121 MiB
    Duration : 3mn 50s
    Overall bit rate mode : Variable
    Overall bit rate : 4 404 Kbps

    Video
    Format : AVC
    Format/Info : Advanced Video Codec
    Format profile : High@L4
    Format settings, CABAC : Yes
    Format settings, ReFrames : 4 frames
    Format settings, GOP : M=8, N=24
    Duration : 3mn 49s
    Bit rate : 3 993 Kbps
    Width : 1 920 pixels
    Height : 1 080 pixels
    Display aspect ratio : 16:9
    Frame rate : 25.000 fps
    Standard : Component
    Color space : YUV
    Chroma subsampling : 4:2:0
    Bit depth : 8 bits
    Scan type : MBAFF
    Scan type, store method : Interleaved fields
    Scan order : Top Field First
    Bits/(Pixel*Frame) : 0.077
    Stream size : 109 MiB (90%)

    Audio
    Format : AC-3
    Format/Info : Audio Coding 3
    Mode extension : CM (complete main)
    Format settings, Endianness : Big
    Duration : 3mn 50s
    Bit rate mode : Constant
    Bit rate : 192 Kbps
    Channel(s) : 2 channels
    Channel positions : Front: L R
    Sampling rate : 48.0 KHz
    ***Hidden content cannot be quoted.***

    Bruno Mars - Treasure
    [​IMG]
    General
    Format : MPEG-TS
    File size : 203 MiB
    Duration : 3mn 11s
    Overall bit rate mode : Variable
    Overall bit rate : 8 874 Kbps

    Video
    Format : AVC
    Format/Info : Advanced Video Codec
    Format profile : High@L4
    Format settings, CABAC : Yes
    Format settings, ReFrames : 4 frames
    Duration : 3mn 10s
    Bit rate : 8 241 Kbps
    Width : 1 920 pixels
    Height : 1 080 pixels
    Display aspect ratio : 16:9
    Frame rate : 25.000 fps
    Standard : Component
    Color space : YUV
    Chroma subsampling : 4:2:0
    Bit depth : 8 bits
    Scan type : MBAFF
    Scan type, store method : Interleaved fields
    Scan order : Top Field First
    Bits/(Pixel*Frame) : 0.159
    Stream size : 187 MiB (92%)

    Audio
    Format : AC-3
    Format/Info : Audio Coding 3
    Mode extension : CM (complete main)
    Format settings, Endianness : Big
    Duration : 3mn 11s
    Bit rate mode : Constant
    Bit rate : 192 Kbps
    Channel(s) : 2 channels
    Channel positions : Front: L R
    Sampling rate : 48.0 KHz
    ***Hidden content cannot be quoted.***

    Bruno Mars - Gorilla
    [​IMG]
    General
    Format : MPEG-TS
    File size : 165 MiB
    Duration : 5mn 59s
    Overall bit rate mode : Variable
    Overall bit rate : 3 860 Kbps

    Video
    Format : AVC
    Format/Info : Advanced Video Codec
    Format profile : High@L4
    Format settings, CABAC : Yes
    Format settings, ReFrames : 4 frames
    Duration : 5mn 59s
    Bit rate : 3 475 Kbps
    Width : 1 920 pixels
    Height : 1 080 pixels
    Display aspect ratio : 16:9
    Frame rate : 25.000 fps
    Standard : Component
    Color space : YUV
    Chroma subsampling : 4:2:0
    Bit depth : 8 bits
    Scan type : MBAFF
    Scan type, store method : Interleaved fields
    Scan order : Top Field First
    Bits/(Pixel*Frame) : 0.067
    Stream size : 149 MiB (90%)

    Audio
    Format : AC-3
    Format/Info : Audio Coding 3
    Mode extension : CM (complete main)
    Format settings, Endianness : Big
    Duration : 5mn 59s
    Bit rate mode : Constant
    Bit rate : 192 Kbps
    Channel(s) : 2 channels
    Channel positions : Front: L R
    Sampling rate : 48.0 KHz
    ***Hidden content cannot be quoted.***

    Mark Ronson feat. Bruno Mars - Uptown Funk
    [​IMG]
    General
    Format : MPEG-TS
    File size : 246 MiB
    Duration : 4mn 26s
    Overall bit rate mode : Variable
    Overall bit rate : 7 659 Kbps

    Video
    Format : AVC
    Format/Info : Advanced Video Codec
    Format profile : High@L4
    Format settings, CABAC : Yes
    Format settings, ReFrames : 4 frames
    Duration : 4mn 25s
    Bit rate : 7 087 Kbps
    Width : 1 920 pixels
    Height : 1 080 pixels
    Display aspect ratio : 16:9
    Frame rate : 25.000 fps
    Standard : Component
    Color space : YUV
    Chroma subsampling : 4:2:0
    Bit depth : 8 bits
    Scan type : MBAFF
    Scan type, store method : Interleaved fields
    Scan order : Top Field First
    Bits/(Pixel*Frame) : 0.137
    Stream size : 224 MiB (91%)

    Audio
    Format : AC-3
    Format/Info : Audio Coding 3
    Mode extension : CM (complete main)
    Format settings, Endianness : Big
    Duration : 4mn 26s
    Bit rate mode : Constant
    Bit rate : 192 Kbps
    Channel(s) : 2 channels
    Channel positions : Front: L R
    Sampling rate : 48.0 KHz
    ***Hidden content cannot be quoted.***[/QUOTE]
     
  15. DeeJuanma

    DeeJuanma Member

    Joined:
    Jul 8, 2017
    Messages:
    212
    Likes Received:
    8
  16. seregil

    seregil Active Member

    Joined:
    Sep 5, 2014
    Messages:
    318
    Likes Received:
    31
    thanks
     
  17. curg

    curg Well-Known Member

    Joined:
    Dec 6, 2013
    Messages:
    1,054
    Likes Received:
    35
    thank you
     
  18. greed202

    greed202 New Member

    Joined:
    Feb 21, 2018
    Messages:
    17
    Likes Received:
    0
    thank you
     
  19. guanweiyue

    guanweiyue Member

    Joined:
    Apr 4, 2018
    Messages:
    42
    Likes Received:
    1
  20. punisherr

    punisherr Member

    Joined:
    Jan 15, 2018
    Messages:
    196
    Likes Received:
    5