PACK Spéciale - Bruno Mars (NRJHITSHD-1080i-DD2.0-Olgold)-HDMania

Discussion in 'NRJ HITS' started by Olgold, Apr 17, 2016.

  1. Olgold

    Olgold Well-Known Member Capper

    Joined:
    Aug 19, 2015
    Messages:
    386
    Likes Received:
    1,312
    Password: Olgold

    B.o.B feat. Bruno Mars - Nothin' On You
    [​IMG]
    General
    Format : MPEG-TS
    File size : 141 MiB
    Duration : 3mn 26s
    Overall bit rate mode : Variable
    Overall bit rate : 5 672 Kbps

    Video
    Format : AVC
    Format/Info : Advanced Video Codec
    Format profile : [email protected]
    Format settings, CABAC : Yes
    Format settings, ReFrames : 4 frames
    Duration : 3mn 25s
    Bit rate : 5 198 Kbps
    Width : 1 920 pixels
    Height : 1 080 pixels
    Display aspect ratio : 16:9
    Frame rate : 25.000 fps
    Standard : Component
    Color space : YUV
    Chroma subsampling : 4:2:0
    Bit depth : 8 bits
    Scan type : MBAFF
    Scan type, store method : Interleaved fields
    Scan order : Top Field First
    Bits/(Pixel*Frame) : 0.100
    Stream size : 127 MiB (90%)

    Audio
    Format : AC-3
    Format/Info : Audio Coding 3
    Mode extension : CM (complete main)
    Format settings, Endianness : Big
    Duration : 3mn 26s
    Bit rate mode : Constant
    Bit rate : 192 Kbps
    Channel(s) : 2 channels
    Channel positions : Front: L R
    Sampling rate : 48.0 KHz
    Hidden Content:
    You must reply before you can see the hidden data contained here.
    Travie McCoy feat. Bruno Mars - Billionaire
    [​IMG]
    General
    Format : MPEG-TS
    File size : 152 MiB
    Duration : 3mn 31s
    Overall bit rate mode : Variable
    Overall bit rate : 6 035 Kbps

    Video
    Format : AVC
    Format/Info : Advanced Video Codec
    Format profile : [email protected]
    Format settings, CABAC : Yes
    Format settings, ReFrames : 4 frames
    Duration : 3mn 31s
    Bit rate : 5 543 Kbps
    Width : 1 920 pixels
    Height : 1 080 pixels
    Display aspect ratio : 16:9
    Frame rate : 25.000 fps
    Standard : Component
    Color space : YUV
    Chroma subsampling : 4:2:0
    Bit depth : 8 bits
    Scan type : MBAFF
    Scan type, store method : Interleaved fields
    Scan order : Top Field First
    Bits/(Pixel*Frame) : 0.107
    Stream size : 140 MiB (92%)

    Audio
    Format : AC-3
    Format/Info : Audio Coding 3
    Mode extension : CM (complete main)
    Format settings, Endianness : Big
    Duration : 3mn 31s
    Bit rate mode : Constant
    Bit rate : 192 Kbps
    Channel(s) : 2 channels
    Channel positions : Front: L R
    Sampling rate : 48.0 KHz
    Hidden Content:
    You must reply before you can see the hidden data contained here.
    Bruno Mars feat. Cee Lo Green & B.o.B - The Other Side
    [​IMG]
    General
    Format : MPEG-TS
    File size : 141 MiB
    Duration : 3mn 43s
    Overall bit rate mode : Variable
    Overall bit rate : 5 163 Kbps

    Video
    Format : AVC
    Format/Info : Advanced Video Codec
    Format profile : [email protected]
    Format settings, CABAC : Yes
    Format settings, ReFrames : 4 frames
    Duration : 3mn 42s
    Bit rate : 4 714 Kbps
    Width : 1 920 pixels
    Height : 1 080 pixels
    Display aspect ratio : 16:9
    Frame rate : 25.000 fps
    Standard : Component
    Color space : YUV
    Chroma subsampling : 4:2:0
    Bit depth : 8 bits
    Scan type : MBAFF
    Scan type, store method : Interleaved fields
    Scan order : Top Field First
    Bits/(Pixel*Frame) : 0.091
    Stream size : 125 MiB (89%)

    Audio
    Format : AC-3
    Format/Info : Audio Coding 3
    Mode extension : CM (complete main)
    Format settings, Endianness : Big
    Duration : 3mn 44s
    Bit rate mode : Constant
    Bit rate : 192 Kbps
    Channel(s) : 2 channels
    Channel positions : Front: L R
    Sampling rate : 48.0 KHz
    Hidden Content:
    You must reply before you can see the hidden data contained here.
    Bruno Mars - Just The Way You Are
    [​IMG]
    General
    Format : MPEG-TS
    File size : 149 MiB
    Duration : 3mn 34s
    Overall bit rate mode : Variable
    Overall bit rate : 5 841 Kbps

    Video
    Format : AVC
    Format/Info : Advanced Video Codec
    Format profile : [email protected]
    Format settings, CABAC : Yes
    Format settings, ReFrames : 4 frames
    Duration : 3mn 34s
    Bit rate : 5 359 Kbps
    Width : 1 920 pixels
    Height : 1 080 pixels
    Display aspect ratio : 16:9
    Frame rate : 25.000 fps
    Standard : Component
    Color space : YUV
    Chroma subsampling : 4:2:0
    Bit depth : 8 bits
    Scan type : MBAFF
    Scan type, store method : Interleaved fields
    Scan order : Top Field First
    Bits/(Pixel*Frame) : 0.103
    Stream size : 137 MiB (92%)

    Audio
    Format : AC-3
    Format/Info : Audio Coding 3
    Mode extension : CM (complete main)
    Format settings, Endianness : Big
    Duration : 3mn 34s
    Bit rate mode : Constant
    Bit rate : 192 Kbps
    Channel(s) : 2 channels
    Channel positions : Front: L R
    Sampling rate : 48.0 KHz
    Hidden Content:
    You must reply before you can see the hidden data contained here.
    Bruno Mars - Grenade
    [​IMG]
    General
    Format : MPEG-TS
    File size : 106 MiB
    Duration : 3mn 29s
    Overall bit rate mode : Variable
    Overall bit rate : 4 081 Kbps

    Video
    Format : AVC
    Format/Info : Advanced Video Codec
    Format profile : [email protected]
    Format settings, CABAC : Yes
    Format settings, ReFrames : 4 frames
    Format settings, GOP : M=8, N=24
    Duration : 3mn 28s
    Bit rate : 3 686 Kbps
    Width : 1 920 pixels
    Height : 1 080 pixels
    Display aspect ratio : 16:9
    Frame rate : 25.000 fps
    Standard : Component
    Color space : YUV
    Chroma subsampling : 4:2:0
    Bit depth : 8 bits
    Scan type : MBAFF
    Scan type, store method : Interleaved fields
    Scan order : Top Field First
    Bits/(Pixel*Frame) : 0.071
    Stream size : 91.4 MiB (87%)

    Audio
    Format : AC-3
    Format/Info : Audio Coding 3
    Mode extension : CM (complete main)
    Format settings, Endianness : Big
    Duration : 3mn 30s
    Bit rate mode : Constant
    Bit rate : 192 Kbps
    Channel(s) : 2 channels
    Channel positions : Front: L R
    Sampling rate : 48.0 KHz
    Hidden Content:
    You must reply before you can see the hidden data contained here.
    Bruno Mars feat. Damian Marley - Liquor Store Blues
    [​IMG]
    General
    Format : MPEG-TS
    File size : 223 MiB
    Duration : 3mn 49s
    Overall bit rate mode : Variable
    Overall bit rate : 8 148 Kbps

    Video
    Format : AVC
    Format/Info : Advanced Video Codec
    Format profile : [email protected]
    Format settings, CABAC : Yes
    Format settings, ReFrames : 4 frames
    Duration : 3mn 49s
    Bit rate : 7 552 Kbps
    Width : 1 920 pixels
    Height : 1 080 pixels
    Display aspect ratio : 16:9
    Frame rate : 25.000 fps
    Standard : Component
    Color space : YUV
    Chroma subsampling : 4:2:0
    Bit depth : 8 bits
    Scan type : MBAFF
    Scan type, store method : Interleaved fields
    Scan order : Top Field First
    Bits/(Pixel*Frame) : 0.146
    Stream size : 207 MiB (93%)

    Audio
    Format : AC-3
    Format/Info : Audio Coding 3
    Mode extension : CM (complete main)
    Format settings, Endianness : Big
    Duration : 3mn 49s
    Bit rate mode : Constant
    Bit rate : 192 Kbps
    Channel(s) : 2 channels
    Channel positions : Front: L R
    Sampling rate : 48.0 KHz
    Hidden Content:
    You must reply before you can see the hidden data contained here.
    Bruno Mars - The Lazy Song
    [​IMG]
    General
    Format : MPEG-TS
    File size : 133 MiB
    Duration : 3mn 9s
    Overall bit rate mode : Variable
    Overall bit rate : 5 885 Kbps

    Video
    Format : AVC
    Format/Info : Advanced Video Codec
    Format profile : [email protected]
    Format settings, CABAC : Yes
    Format settings, ReFrames : 4 frames
    Duration : 3mn 9s
    Bit rate : 5 400 Kbps
    Width : 1 920 pixels
    Height : 1 080 pixels
    Display aspect ratio : 16:9
    Frame rate : 25.000 fps
    Standard : Component
    Color space : YUV
    Chroma subsampling : 4:2:0
    Bit depth : 8 bits
    Scan type : MBAFF
    Scan type, store method : Interleaved fields
    Scan order : Top Field First
    Bits/(Pixel*Frame) : 0.104
    Stream size : 122 MiB (92%)

    Audio
    Format : AC-3
    Format/Info : Audio Coding 3
    Mode extension : CM (complete main)
    Format settings, Endianness : Big
    Duration : 3mn 9s
    Bit rate mode : Constant
    Bit rate : 192 Kbps
    Channel(s) : 2 channels
    Channel positions : Front: L R
    Sampling rate : 48.0 KHz
    Hidden Content:
    You must reply before you can see the hidden data contained here.
    Bad Meets Evil feat. Bruno Mars - Lighters
    [​IMG]
    General
    Format : MPEG-TS
    File size : 144 MiB
    Duration : 5mn 3s
    Overall bit rate mode : Variable
    Overall bit rate : 3 971 Kbps

    Video
    Format : AVC
    Format/Info : Advanced Video Codec
    Format profile : [email protected]
    Format settings, CABAC : Yes
    Format settings, ReFrames : 4 frames
    Duration : 5mn 3s
    Bit rate : 3 581 Kbps
    Width : 1 920 pixels
    Height : 1 080 pixels
    Display aspect ratio : 16:9
    Frame rate : 25.000 fps
    Standard : Component
    Color space : YUV
    Chroma subsampling : 4:2:0
    Bit depth : 8 bits
    Scan type : MBAFF
    Scan type, store method : Interleaved fields
    Scan order : Top Field First
    Bits/(Pixel*Frame) : 0.069
    Stream size : 129 MiB (90%)

    Audio
    Format : AC-3
    Format/Info : Audio Coding 3
    Mode extension : CM (complete main)
    Format settings, Endianness : Big
    Duration : 5mn 3s
    Bit rate mode : Constant
    Bit rate : 192 Kbps
    Channel(s) : 2 channels
    Channel positions : Front: L R
    Sampling rate : 48.0 KHz
    Hidden Content:
    You must reply before you can see the hidden data contained here.
    Bruno Mars - It Will Rain
    [​IMG]
    General
    Format : MPEG-TS
    File size : 136 MiB
    Duration : 4mn 12s
    Overall bit rate mode : Variable
    Overall bit rate : 4 502 Kbps

    Video
    Format : AVC
    Format/Info : Advanced Video Codec
    Format profile : [email protected]
    Format settings, CABAC : Yes
    Format settings, ReFrames : 4 frames
    Duration : 4mn 10s
    Bit rate : 4 086 Kbps
    Width : 1 920 pixels
    Height : 1 080 pixels
    Display aspect ratio : 16:9
    Frame rate : 25.000 fps
    Standard : Component
    Color space : YUV
    Chroma subsampling : 4:2:0
    Bit depth : 8 bits
    Scan type : MBAFF
    Scan type, store method : Interleaved fields
    Scan order : Top Field First
    Bits/(Pixel*Frame) : 0.079
    Stream size : 122 MiB (90%)

    Audio
    Format : AC-3
    Format/Info : Audio Coding 3
    Mode extension : CM (complete main)
    Format settings, Endianness : Big
    Duration : 4mn 12s
    Bit rate mode : Constant
    Bit rate : 192 Kbps
    Channel(s) : 2 channels
    Channel positions : Front: L R
    Sampling rate : 48.0 KHz
    Hidden Content:
    You must reply before you can see the hidden data contained here.
    Lil Wayne feat. Bruno Mars - Mirror
    [​IMG]
    General
    Format : MPEG-TS
    File size : 151 MiB
    Duration : 3mn 48s
    Overall bit rate mode : Variable
    Overall bit rate : 5 530 Kbps

    Video
    Format : AVC
    Format/Info : Advanced Video Codec
    Format profile : [email protected]
    Format settings, CABAC : Yes
    Format settings, ReFrames : 4 frames
    Duration : 3mn 47s
    Bit rate : 5 063 Kbps
    Width : 1 920 pixels
    Height : 1 080 pixels
    Display aspect ratio : 16:9
    Frame rate : 25.000 fps
    Standard : Component
    Color space : YUV
    Chroma subsampling : 4:2:0
    Bit depth : 8 bits
    Scan type : MBAFF
    Scan type, store method : Interleaved fields
    Scan order : Top Field First
    Bits/(Pixel*Frame) : 0.098
    Stream size : 137 MiB (91%)

    Audio
    Format : AC-3
    Format/Info : Audio Coding 3
    Mode extension : CM (complete main)
    Format settings, Endianness : Big
    Duration : 3mn 48s
    Bit rate mode : Constant
    Bit rate : 192 Kbps
    Channel(s) : 2 channels
    Channel positions : Front: L R
    Sampling rate : 48.0 KHz
    Hidden Content:
    You must reply before you can see the hidden data contained here.
    Bruno Mars - Locked Out Of Heaven
    [​IMG]
    General
    Format : MPEG-TS
    File size : 218 MiB
    Duration : 3mn 48s
    Overall bit rate mode : Variable
    Overall bit rate : 7 994 Kbps

    Video
    Format : AVC
    Format/Info : Advanced Video Codec
    Format profile : [email protected]
    Format settings, CABAC : Yes
    Format settings, ReFrames : 4 frames
    Duration : 3mn 46s
    Bit rate : 7 405 Kbps
    Width : 1 920 pixels
    Height : 1 080 pixels
    Display aspect ratio : 16:9
    Frame rate : 25.000 fps
    Standard : Component
    Color space : YUV
    Chroma subsampling : 4:2:0
    Bit depth : 8 bits
    Scan type : MBAFF
    Scan type, store method : Interleaved fields
    Scan order : Top Field First
    Bits/(Pixel*Frame) : 0.143
    Stream size : 200 MiB (92%)

    Audio
    Format : AC-3
    Format/Info : Audio Coding 3
    Mode extension : CM (complete main)
    Format settings, Endianness : Big
    Duration : 3mn 47s
    Bit rate mode : Constant
    Bit rate : 192 Kbps
    Channel(s) : 2 channels
    Channel positions : Front: L R
    Sampling rate : 48.0 KHz
    Hidden Content:
    You must reply before you can see the hidden data contained here.
    Bruno Mars - When I Was Your Man
    [​IMG]
    General
    Format : MPEG-TS
    File size : 121 MiB
    Duration : 3mn 50s
    Overall bit rate mode : Variable
    Overall bit rate : 4 404 Kbps

    Video
    Format : AVC
    Format/Info : Advanced Video Codec
    Format profile : [email protected]
    Format settings, CABAC : Yes
    Format settings, ReFrames : 4 frames
    Format settings, GOP : M=8, N=24
    Duration : 3mn 49s
    Bit rate : 3 993 Kbps
    Width : 1 920 pixels
    Height : 1 080 pixels
    Display aspect ratio : 16:9
    Frame rate : 25.000 fps
    Standard : Component
    Color space : YUV
    Chroma subsampling : 4:2:0
    Bit depth : 8 bits
    Scan type : MBAFF
    Scan type, store method : Interleaved fields
    Scan order : Top Field First
    Bits/(Pixel*Frame) : 0.077
    Stream size : 109 MiB (90%)

    Audio
    Format : AC-3
    Format/Info : Audio Coding 3
    Mode extension : CM (complete main)
    Format settings, Endianness : Big
    Duration : 3mn 50s
    Bit rate mode : Constant
    Bit rate : 192 Kbps
    Channel(s) : 2 channels
    Channel positions : Front: L R
    Sampling rate : 48.0 KHz
    Hidden Content:
    You must reply before you can see the hidden data contained here.
    Bruno Mars - Treasure
    [​IMG]
    General
    Format : MPEG-TS
    File size : 203 MiB
    Duration : 3mn 11s
    Overall bit rate mode : Variable
    Overall bit rate : 8 874 Kbps

    Video
    Format : AVC
    Format/Info : Advanced Video Codec
    Format profile : [email protected]
    Format settings, CABAC : Yes
    Format settings, ReFrames : 4 frames
    Duration : 3mn 10s
    Bit rate : 8 241 Kbps
    Width : 1 920 pixels
    Height : 1 080 pixels
    Display aspect ratio : 16:9
    Frame rate : 25.000 fps
    Standard : Component
    Color space : YUV
    Chroma subsampling : 4:2:0
    Bit depth : 8 bits
    Scan type : MBAFF
    Scan type, store method : Interleaved fields
    Scan order : Top Field First
    Bits/(Pixel*Frame) : 0.159
    Stream size : 187 MiB (92%)

    Audio
    Format : AC-3
    Format/Info : Audio Coding 3
    Mode extension : CM (complete main)
    Format settings, Endianness : Big
    Duration : 3mn 11s
    Bit rate mode : Constant
    Bit rate : 192 Kbps
    Channel(s) : 2 channels
    Channel positions : Front: L R
    Sampling rate : 48.0 KHz
    Hidden Content:
    You must reply before you can see the hidden data contained here.
    Bruno Mars - Gorilla
    [​IMG]
    General
    Format : MPEG-TS
    File size : 165 MiB
    Duration : 5mn 59s
    Overall bit rate mode : Variable
    Overall bit rate : 3 860 Kbps

    Video
    Format : AVC
    Format/Info : Advanced Video Codec
    Format profile : [email protected]
    Format settings, CABAC : Yes
    Format settings, ReFrames : 4 frames
    Duration : 5mn 59s
    Bit rate : 3 475 Kbps
    Width : 1 920 pixels
    Height : 1 080 pixels
    Display aspect ratio : 16:9
    Frame rate : 25.000 fps
    Standard : Component
    Color space : YUV
    Chroma subsampling : 4:2:0
    Bit depth : 8 bits
    Scan type : MBAFF
    Scan type, store method : Interleaved fields
    Scan order : Top Field First
    Bits/(Pixel*Frame) : 0.067
    Stream size : 149 MiB (90%)

    Audio
    Format : AC-3
    Format/Info : Audio Coding 3
    Mode extension : CM (complete main)
    Format settings, Endianness : Big
    Duration : 5mn 59s
    Bit rate mode : Constant
    Bit rate : 192 Kbps
    Channel(s) : 2 channels
    Channel positions : Front: L R
    Sampling rate : 48.0 KHz
    Hidden Content:
    You must reply before you can see the hidden data contained here.
    Mark Ronson feat. Bruno Mars - Uptown Funk
    [​IMG]
    General
    Format : MPEG-TS
    File size : 246 MiB
    Duration : 4mn 26s
    Overall bit rate mode : Variable
    Overall bit rate : 7 659 Kbps

    Video
    Format : AVC
    Format/Info : Advanced Video Codec
    Format profile : [email protected]
    Format settings, CABAC : Yes
    Format settings, ReFrames : 4 frames
    Duration : 4mn 25s
    Bit rate : 7 087 Kbps
    Width : 1 920 pixels
    Height : 1 080 pixels
    Display aspect ratio : 16:9
    Frame rate : 25.000 fps
    Standard : Component
    Color space : YUV
    Chroma subsampling : 4:2:0
    Bit depth : 8 bits
    Scan type : MBAFF
    Scan type, store method : Interleaved fields
    Scan order : Top Field First
    Bits/(Pixel*Frame) : 0.137
    Stream size : 224 MiB (91%)

    Audio
    Format : AC-3
    Format/Info : Audio Coding 3
    Mode extension : CM (complete main)
    Format settings, Endianness : Big
    Duration : 4mn 26s
    Bit rate mode : Constant
    Bit rate : 192 Kbps
    Channel(s) : 2 channels
    Channel positions : Front: L R
    Sampling rate : 48.0 KHz
    Hidden Content:
    You must reply before you can see the hidden data contained here.
     
    CELOBRAZiL, Dreamer and rhea like this.
  2. Loading...


  3. Snorom6

    Snorom6 Well-Known Member Uploader

    Joined:
    Dec 17, 2015
    Messages:
    4,246
    Likes Received:
    3,568
  4. rhea

    rhea Well-Known Member

    Joined:
    Jan 6, 2014
    Messages:
    5,280
    Likes Received:
    253
    thank you so much! :)
     
  5. dgnio

    dgnio Well-Known Member

    Joined:
    Jul 7, 2014
    Messages:
    1,526
    Likes Received:
    293
    thank u very much!
     
  6. Dreamer

    Dreamer ♫ It's Britney Bitch ♫ Capper Uploader

    Joined:
    Dec 4, 2014
    Messages:
    2,230
    Likes Received:
    1,961
    Thank you so much! :):love:
     
  7. seesagun

    seesagun Member

    Joined:
    Mar 22, 2014
    Messages:
    227
    Likes Received:
    1
    thank you
     
  8. Valen

    Valen Member

    Joined:
    Dec 21, 2015
    Messages:
    213
    Likes Received:
    14
    thanks
     
  9. alberto piper naro

    alberto piper naro Member

    Joined:
    Jul 4, 2015
    Messages:
    402
    Likes Received:
    13
  10. slill

    slill Member

    Joined:
    Jul 25, 2014
    Messages:
    910
    Likes Received:
    9
    thanks
     
  11. kin

    kin Member

    Joined:
    Dec 2, 2015
    Messages:
    64
    Likes Received:
    2
    Billionaire omg so good
     
  12. Jrec

    Jrec Member

    Joined:
    May 11, 2016
    Messages:
    610
    Likes Received:
    23
    Thanks
     
  13. faz

    faz Member

    Joined:
    Jan 9, 2014
    Messages:
    221
    Likes Received:
    1
    thank you....
     
  14. rikylouis14

    rikylouis14 Well-Known Member

    Joined:
    Jun 27, 2016
    Messages:
    569
    Likes Received:
    250
  15. BinhTVT

    BinhTVT Member

    Joined:
    Jun 30, 2015
    Messages:
    176
    Likes Received:
    3
    thank u
     
  16. tapions

    tapions Active Member

    Joined:
    Aug 30, 2016
    Messages:
    761
    Likes Received:
    53
    gracias
     
  17. CristianMatias

    CristianMatias Member

    Joined:
    Sep 17, 2016
    Messages:
    541
    Likes Received:
    17
  18. CristianMatias

    CristianMatias Member

    Joined:
    Sep 17, 2016
    Messages:
    541
    Likes Received:
    17
    music high definition
     
  19. braciata

    braciata Well-Known Member

    Joined:
    Oct 16, 2014
    Messages:
    377
    Likes Received:
    382
    tnxxxxxxxxx
     
  20. CristianMatias

    CristianMatias Member

    Joined:
    Sep 17, 2016
    Messages:
    541
    Likes Received:
    17
    Bruno mars
     
  21. lopapata

    lopapata Member

    Joined:
    Jul 22, 2016
    Messages:
    214
    Likes Received:
    3