Sophie Ellis-Bextor - Heartbreak (Make Me A Dancer) [MTVNHD 1080i]

Discussion in 'MTVNHD' started by DETOX, Feb 18, 2015.

  1. DETOX

    DETOX Well-Known Member V . I . P. Uploader

    Joined:
    Feb 20, 2014
    Messages:
    2,788
    Likes Received:
    15,676


    Sophie Ellis-Bextor - Heartbreak (Make Me A Dancer)
    [MTVNHD 1080i]


    [​IMG]

    General
    ID : 8900 (0x22C4)
    Complete name : Sophie Ellis-Bextor - Heartbreak (Make Me A Dancer) [MTVNHD 1080i].ts
    Format : MPEG-TS
    File size : 199 MiB
    Duration : 3mn 21s
    Overall bit rate mode : Variable
    Overall bit rate : 8 276 Kbps

    Video
    ID : 326 (0x146)
    Menu ID : 12106 (0x2F4A)
    Format : AVC
    Format/Info : Advanced Video Codec
    Format profile : [email protected]
    Format settings, CABAC : Yes
    Format settings, ReFrames : 4 frames
    Codec ID : 27
    Duration : 3mn 22s
    Bit rate : 7 479 Kbps
    Width : 1 920 pixels
    Height : 1 080 pixels
    Display aspect ratio : 16:9
    Frame rate : 25.000 fps
    Color space : YUV
    Chroma subsampling : 4:2:0
    Bit depth : 8 bits
    Scan type : Interlaced
    Scan order : Top Field First
    Bits/(Pixel*Frame) : 0.144
    Stream size : 180 MiB (90%)
    Color primaries : BT.709
    Transfer characteristics : BT.709
    Matrix coefficients : BT.709
    Color range : Limited

    Audio
    ID : 406 (0x196)
    Menu ID : 12106 (0x2F4A)
    Format : AC-3
    Format/Info : Audio Coding 3
    Mode extension : CM (complete main)
    Format settings, Endianness : Big
    Codec ID : 6
    Duration : 3mn 21s
    Bit rate mode : Constant
    Bit rate : 384 Kbps
    Channel(s) : 2 channels
    Channel positions : Front: L R
    Sampling rate : 48.0 KHz
    Bit depth : 16 bits
    Compression mode : Lossy
    Delay relative to video : 105ms
    Stream size : 9.25 MiB (5%)
    Language : English
    Language, more info : Clean effects


    SERVER: UPTOBOX MEGA / PASSWORD: DETOX

    Hidden Content:
    You must reply before you can see the hidden data contained here.
     
    Last edited: Feb 23, 2015
  2. Loading...


  3. Albano Salinas

    Albano Salinas Well-Known Member

    Joined:
    Nov 6, 2014
    Messages:
    452
    Likes Received:
    826
    thank you !.-
     
  4. marco desolo

    marco desolo Member

    Joined:
    Dec 21, 2014
    Messages:
    62
    Likes Received:
    3
     
  5. HDMjuzik

    HDMjuzik Member

    Joined:
    Feb 4, 2015
    Messages:
    59
    Likes Received:
    2
    thank you
     
  6. indreams2011

    indreams2011 Member

    Joined:
    Dec 10, 2014
    Messages:
    663
    Likes Received:
    19
     
  7. brit

    brit Member

    Joined:
    Dec 14, 2013
    Messages:
    268
    Likes Received:
    3
    thank you
     
  8. fisherTW

    fisherTW Well-Known Member

    Joined:
    Dec 3, 2014
    Messages:
    1,470
    Likes Received:
    170
    Thank you.:)
     
  9. genak

    genak Member

    Joined:
    Dec 15, 2013
    Messages:
    161
    Likes Received:
    4
    Thank you :)
     
  10. Vinny

    Vinny Active Member

    Joined:
    Dec 26, 2013
    Messages:
    1,839
    Likes Received:
    8
    Thanks! ;D
     
  11. nolynexor88

    nolynexor88 Active Member

    Joined:
    Sep 29, 2015
    Messages:
    904
    Likes Received:
    34
     
  12. arnold

    arnold Member

    Joined:
    Oct 29, 2014
    Messages:
    233
    Likes Received:
    3
    thank yyou
     
  13. theskulled

    theskulled Member

    Joined:
    Sep 15, 2014
    Messages:
    242
    Likes Received:
    4
  14. gayway

    gayway Active Member

    Joined:
    Mar 10, 2016
    Messages:
    830
    Likes Received:
    46
    Thank You!
     
  15. alterion

    alterion Member

    Joined:
    May 7, 2016
    Messages:
    388
    Likes Received:
    14
    thanks
     
  16. cegs9

    cegs9 Member

    Joined:
    Mar 2, 2016
    Messages:
    216
    Likes Received:
    12
    Thanks
     
  17. SPE3RX

    SPE3RX New Member

    Joined:
    Jun 27, 2016
    Messages:
    2
    Likes Received:
    0
    Thanks!!!
     
  18. Marcelo Garcia Junior

    Marcelo Garcia Junior Member

    Joined:
    Jun 3, 2015
    Messages:
    423
    Likes Received:
    8
  19. tapions

    tapions Active Member

    Joined:
    Aug 30, 2016
    Messages:
    777
    Likes Received:
    58
    gracias
     
  20. Bextorian

    Bextorian Member

    Joined:
    Oct 29, 2016
    Messages:
    35
    Likes Received:
    0
    Thanks!
     
  21. revilo18

    revilo18 Well-Known Member

    Joined:
    May 26, 2016
    Messages:
    1,482
    Likes Received:
    61
    THANKKK