Sophie Ellis-Bextor - Bittersweet [MTVNHD 1080i]

Discussion in 'MTVNHD' started by DETOX, Feb 18, 2015.

  1. DETOX

    DETOX Well-Known Member V . I . P. Uploader

    Joined:
    Feb 20, 2014
    Messages:
    2,584
    Likes Received:
    12,083


    Sophie Ellis-Bextor - Bittersweet [MTVNHD 1080i]

    [​IMG]

    General
    ID : 1 (0x1)
    Complete name : Sophie Ellis-Bextor - Bittersweet [MTVNHD 1080i].ts
    Format : MPEG-TS
    File size : 274 MiB
    Duration : 3mn 28s
    Overall bit rate mode : Variable
    Overall bit rate : 11.0 Mbps

    Video
    ID : 4192 (0x1060)
    Menu ID : 1 (0x1)
    Format : AVC
    Format/Info : Advanced Video Codec
    Format profile : [email protected]
    Format settings, CABAC : Yes
    Format settings, ReFrames : 4 frames
    Codec ID : 27
    Duration : 3mn 28s
    Bit rate : 10.1 Mbps
    Width : 1 920 pixels
    Height : 1 080 pixels
    Display aspect ratio : 16:9
    Frame rate : 25.000 fps
    Color space : YUV
    Chroma subsampling : 4:2:0
    Bit depth : 8 bits
    Scan type : Interlaced
    Scan order : Top Field First
    Bits/(Pixel*Frame) : 0.195
    Stream size : 251 MiB (92%)
    Color primaries : BT.709
    Transfer characteristics : BT.709
    Matrix coefficients : BT.709
    Color range : Limited

    Audio
    ID : 625 (0x271)
    Menu ID : 1 (0x1)
    Format : AC-3
    Format/Info : Audio Coding 3
    Mode extension : CM (complete main)
    Format settings, Endianness : Big
    Codec ID : 6
    Duration : 3mn 28s
    Bit rate mode : Constant
    Bit rate : 384 Kbps
    Channel(s) : 2 channels
    Channel positions : Front: L R
    Sampling rate : 48.0 KHz
    Bit depth : 16 bits
    Compression mode : Lossy
    Stream size : 9.54 MiB (3%)
    Language : English


    SERVER: UPTOBOX MEGA / PASSWORD: DETOX

    Hidden Content:
    You must reply before you can see the hidden data contained here.
     
  2. Loading...


  3. Dreamer

    Dreamer ♫ It's Britney Bitch ♫ Capper Uploader

    Joined:
    Dec 4, 2014
    Messages:
    2,129
    Likes Received:
    1,787
    Thank you
     
  4. Albano Salinas

    Albano Salinas Well-Known Member

    Joined:
    Nov 6, 2014
    Messages:
    445
    Likes Received:
    748
    thank you !.-
     
  5. marco desolo

    marco desolo Member

    Joined:
    Dec 21, 2014
    Messages:
    62
    Likes Received:
    3
     
  6. indreams2011

    indreams2011 Member

    Joined:
    Dec 10, 2014
    Messages:
    663
    Likes Received:
    19
     
  7. brit

    brit Member

    Joined:
    Dec 14, 2013
    Messages:
    255
    Likes Received:
    3
    thank you
     
  8. joelh20101

    joelh20101 Well-Known Member

    Joined:
    Nov 4, 2013
    Messages:
    1,455
    Likes Received:
    131
    thanks for this
     
  9. fisherTW

    fisherTW Well-Known Member

    Joined:
    Dec 3, 2014
    Messages:
    1,402
    Likes Received:
    159
    Thank you.:)
     
  10. Vinny

    Vinny Active Member

    Joined:
    Dec 26, 2013
    Messages:
    1,720
    Likes Received:
    7
    Thanks! ;D
     
  11. nolynexor88

    nolynexor88 Member

    Joined:
    Sep 29, 2015
    Messages:
    761
    Likes Received:
    23
    Thank you
     
  12. ddXogo

    ddXogo Member

    Joined:
    May 26, 2014
    Messages:
    222
    Likes Received:
    11
    bad qality
     
  13. arnold

    arnold Member

    Joined:
    Oct 29, 2014
    Messages:
    232
    Likes Received:
    3
    thank you!
     
  14. cele_x

    cele_x Member

    Joined:
    Oct 11, 2015
    Messages:
    86
    Likes Received:
    2
    thanks 1729279-scientist.jpg
     
  15. theskulled

    theskulled Member

    Joined:
    Sep 15, 2014
    Messages:
    230
    Likes Received:
    2
  16. gayway

    gayway Active Member

    Joined:
    Mar 10, 2016
    Messages:
    737
    Likes Received:
    33
    Thank You!
     
  17. cegs9

    cegs9 Member

    Joined:
    Mar 2, 2016
    Messages:
    198
    Likes Received:
    10
    Thanks
     
  18. SPE3RX

    SPE3RX New Member

    Joined:
    Jun 27, 2016
    Messages:
    2
    Likes Received:
    0
    Arigatou!

     
  19. Marcelo Garcia Junior

    Marcelo Garcia Junior Member

    Joined:
    Jun 3, 2015
    Messages:
    322
    Likes Received:
    7
  20. revilo18

    revilo18 Well-Known Member

    Joined:
    May 26, 2016
    Messages:
    1,203
    Likes Received:
    50
    THANKKK
     
  21. Batiburrillo

    Batiburrillo New Member

    Joined:
    Dec 30, 2016
    Messages:
    14
    Likes Received:
    0