Snoop Dogg ft. Pharrell - Drop It Like It's Hot (MHD) 1080i [DroneSmelter]

Discussion in 'MHD' started by DroneSmelter, Jan 25, 2014.

  1. DroneSmelter

    DroneSmelter Member Capper

    Joined:
    Dec 31, 2013
    Messages:
    47
    Likes Received:
    91
    [​IMG]
    Code:
    Format                                  : MPEG-TS
    File size                                : 154 MiB
    Duration                                : 4mn 21s
    Overall bit rate mode                    : Variable
    Overall bit rate                        : 4 917 Kbps
    Maximum Overall bit rate                : 35.5 Mbps
    
    Format                                  : AVC
    Format/Info                              : Advanced Video Codec
    Format profile                          : [email protected]
    Format settings, CABAC                  : Yes
    Format settings, ReFrames                : 4 frames
    Format settings, GOP                    : M=4, N=40
    Codec ID                                : 27
    Duration                                : 4mn 22s
    Bit rate                                : 4 286 Kbps
    Width                                    : 1 440 pixels
    Height                                  : 1 080 pixels
    Display aspect ratio                    : 16:9
    Frame rate                              : 29.970 fps
    Color space                              : YUV
    Chroma subsampling                      : 4:2:0
    Bit depth                                : 8 bits
    Scan type                                : Interlaced
    Scan order                              : Top Field First
    Bits/(Pixel*Frame)                      : 0.092
    Stream size                              : 134 MiB (87%)
    
    Format                                  : AC-3
    Format/Info                              : Audio Coding 3
    Mode extension                          : CM (complete main)
    Format settings, Endianness              : Big
    Codec ID                                : 129
    Duration                                : 4mn 22s
    Bit rate mode                            : Constant
    Bit rate                                : 384 Kbps
    Channel(s)                              : 6 channels
    Channel positions                        : Front: L C R, Side: L R, LFE
    Sampling rate                            : 48.0 KHz
    Bit depth                                : 16 bits
    Compression mode                        : Lossy
    Delay relative to video                  : 86ms
    Stream size                              : 12.0 MiB (8%)
    Links:
    Hidden Content:
    You must reply before you can see the hidden data contained here.
     
    Brungor likes this.
  2. WilHoP

    WilHoP Member

    Joined:
    Jan 30, 2014
    Messages:
    37
    Likes Received:
    0
    exclente video gracias
     
  3. grepitu

    grepitu Member

    Joined:
    Feb 1, 2014
    Messages:
    44
    Likes Received:
    6
     
  4. MCTR

    MCTR Member

    Joined:
    Feb 23, 2014
    Messages:
    275
    Likes Received:
    23
    thanks
     
  5. kesh1000

    kesh1000 Member

    Joined:
    May 5, 2014
    Messages:
    75
    Likes Received:
    0
    Thanks
     
  6. Flaxdevil

    Flaxdevil Member

    Joined:
    May 25, 2014
    Messages:
    206
    Likes Received:
    6
    hot
     
  7. mizdot

    mizdot Active Member

    Joined:
    Nov 13, 2014
    Messages:
    1,195
    Likes Received:
    21
    tnx man
     
  8. Pahanich

    Pahanich New Member

    Joined:
    Dec 28, 2014
    Messages:
    6
    Likes Received:
    1
    rdtg cfc fcgh
     
  9. williamcaracas

    williamcaracas Member

    Joined:
    Nov 29, 2013
    Messages:
    153
    Likes Received:
    2
  10. Brungor

    Brungor Member

    Joined:
    Dec 9, 2015
    Messages:
    67
    Likes Received:
    9
    thanks
     
  11. jpzster

    jpzster New Member

    Joined:
    Jun 16, 2016
    Messages:
    29
    Likes Received:
    0
    Thanks
     
  12. tapions

    tapions Active Member

    Joined:
    Aug 30, 2016
    Messages:
    761
    Likes Received:
    53
    gracias
     
  13. CristianMatias

    CristianMatias Member

    Joined:
    Sep 17, 2016
    Messages:
    541
    Likes Received:
    17
  14. Tommyboy

    Tommyboy Member

    Joined:
    Oct 23, 2016
    Messages:
    434
    Likes Received:
    13
    Thanks
     
  15. Tommyboy

    Tommyboy Member

    Joined:
    Oct 23, 2016
    Messages:
    434
    Likes Received:
    13
    Thanxalot
     
  16. Praveen867

    Praveen867 Member

    Joined:
    Nov 14, 2016
    Messages:
    482
    Likes Received:
    2
    TYYYYYYYYYYYYYYY
     
  17. aquafor

    aquafor Member

    Joined:
    Jan 16, 2016
    Messages:
    117
    Likes Received:
    0
    thanks
     
  18. CristianMatias

    CristianMatias Member

    Joined:
    Sep 17, 2016
    Messages:
    541
    Likes Received:
    17
  19. diegov

    diegov New Member

    Joined:
    Jan 4, 2017
    Messages:
    29
    Likes Received:
    0
    thanks
     
  20. willjay

    willjay Member

    Joined:
    May 13, 2016
    Messages:
    146
    Likes Received:
    4
    Still on?
    Edit: NO!