Snoop Dogg feat. Justin Timberlake - Signs (TRACEURBANHD-1080i-MPA2.0-Djodjara)-HDMania

Discussion in 'TRACE URBAN HD' started by Djodjara, Sep 7, 2014.

  1. Djodjara

    Djodjara Gwen Fan Capper

    Joined:
    Sep 6, 2014
    Messages:
    757
    Likes Received:
    1,361
    Snoop Dogg feat. Justin Timberlake - Signs (Trace Urban HD 1080i - Djodjara)

    [​IMG]
    [​IMG]
    [​IMG]
    [​IMG]

    General:

    ID : 38 (0x26)
    Format : MPEG-TS
    File size : 220 MiB
    Duration : 3mn 58s
    Overall bit rate mode : Variable
    Overall bit rate : 7 734 Kbps

    Video:
    ID : 1353 (0x549)
    Menu ID : 7059 (0x1B93)
    Format : AVC
    Format/Info : Advanced Video Codec
    Format profile : [email protected]
    Format settings, CABAC : Yes
    Format settings, ReFrames : 4 frames
    Codec ID : 27
    Duration : 3mn 57s
    Bit rate : 7 158 Kbps
    Width : 1 920 pixels
    Height : 1 080 pixels
    Display aspect ratio : 16:9
    Frame rate : 25.000 fps
    Standard : Component
    Color space : YUV
    Chroma subsampling : 4:2:0
    Bit depth : 8 bits
    Scan type : Interlaced
    Bits/(Pixel*Frame) : 0.138
    Stream size : 203 MiB (92%)
    Color primaries : BT.709
    Transfer characteristics : BT.709
    Matrix coefficients : BT.709

    Audio:
    ID : 3374 (0xD2E)
    Menu ID : 7059 (0x1B93)
    Format : MPEG Audio
    Format version : Version 1
    Format profile : Layer 2
    Codec ID : 4
    Duration : 3mn 57s
    Bit rate mode : Constant
    Bit rate : 192 Kbps
    Channel count : 2 channels
    Sampling rate : 48.0 KHz
    Compression mode : Lossy
    Delay relative to video : 87ms
    Stream size : 5.44 MiB (2%)
    Language : English

    Hidden Content:
    You must reply before you can see the hidden data contained here.
     
    lyana94 and Kensing like this.
  2. ytyh

    ytyh Member

    Joined:
    Mar 30, 2014
    Messages:
    432
    Likes Received:
    4
    Thank you!
     
  3. Kensing

    Kensing Member

    Joined:
    Dec 27, 2013
    Messages:
    264
    Likes Received:
    0
    Thanks
     
  4. Escalade1080p

    Escalade1080p Member

    Joined:
    Nov 20, 2013
    Messages:
    508
    Likes Received:
    14
  5. franklele

    franklele Well-Known Member

    Joined:
    Nov 11, 2013
    Messages:
    2,002
    Likes Received:
    97
    thank you
     
  6. ericbook

    ericbook Member

    Joined:
    Jan 3, 2014
    Messages:
    202
    Likes Received:
    3
    thanks
     
  7. Djodjara

    Djodjara Gwen Fan Capper

    Joined:
    Sep 6, 2014
    Messages:
    757
    Likes Received:
    1,361
    you're welcome :)
     
  8. JSmoove

    JSmoove Member

    Joined:
    Nov 27, 2013
    Messages:
    76
    Likes Received:
    1
    thanks!
     
  9. Crusha

    Crusha Well-Known Member Capper

    Joined:
    Oct 15, 2014
    Messages:
    2,350
    Likes Received:
    2,421
  10. MCTR

    MCTR Active Member

    Joined:
    Feb 23, 2014
    Messages:
    293
    Likes Received:
    38
  11. elejido10

    elejido10 Member

    Joined:
    Oct 27, 2013
    Messages:
    189
    Likes Received:
    0
  12. Chris

    Chris Member

    Joined:
    Oct 19, 2013
    Messages:
    603
    Likes Received:
    17
    Thank you
     
  13. Vinny

    Vinny Active Member

    Joined:
    Dec 26, 2013
    Messages:
    3,214
    Likes Received:
    19
    Thank U!
     
  14. limonato

    limonato Member

    Joined:
    Dec 1, 2014
    Messages:
    206
    Likes Received:
    4
    thank you
     
  15. TrendMusic

    TrendMusic Well-Known Member

    Joined:
    Oct 7, 2013
    Messages:
    1,225
    Likes Received:
    80
  16. Pavulon

    Pavulon Well-Known Member

    Joined:
    Mar 22, 2016
    Messages:
    2,361
    Likes Received:
    198
    thanks
     
  17. Eulonzo

    Eulonzo Member

    Joined:
    Sep 3, 2016
    Messages:
    52
    Likes Received:
    2
    Thanks! I'm surprised this one exists.
     
  18. tapions

    tapions Active Member

    Joined:
    Aug 30, 2016
    Messages:
    870
    Likes Received:
    65
    gracias
     
  19. Praveen867

    Praveen867 Member

    Joined:
    Nov 14, 2016
    Messages:
    529
    Likes Received:
    3
    very good
     
  20. zorgs777

    zorgs777 Member

    Joined:
    Feb 18, 2017
    Messages:
    67
    Likes Received:
    0
    Thank you!