DVD Sixpence None The Richer - Kiss Me DVD NTSC 480i PCM [vip-files.net]

Discussion in 'SD' started by CELOBRAZiL, Jan 10, 2017.

  1. CELOBRAZiL

    CELOBRAZiL Well-Known Member Capper V . I . P. Donor

    Joined:
    Oct 2, 2013
    Messages:
    1,772
    Likes Received:
    4,971
    Sixpence None The Richer - Kiss Me DVD NTSC 480i PCM [vip-files.net]

    [​IMG]


    Format : MPEG-PS
    File size : 143 MiB
    Duration : 3mn 14s
    Overall bit rate mode : Variable
    Overall bit rate : 6 170 Kbps
    Writing library : http://vip-files.net

    Video
    ID : 224 (0xE0)
    Format : MPEG Video
    Format version : Version 2
    Format profile : [email protected]
    Format settings, BVOP : Yes
    Format settings, Matrix : Custom
    Format settings, GOP : M=3, N=15
    Format settings, picture structure : Frame
    Duration : 3mn 14s
    Bit rate mode : Variable
    Bit rate : 4 511 Kbps
    Maximum bit rate : 8 000 Kbps
    Width : 720 pixels
    Height : 480 pixels
    Display aspect ratio : 4:3
    Frame rate : 29.970 fps
    Standard : NTSC
    Color space : YUV
    Chroma subsampling : 4:2:0
    Bit depth : 8 bits
    Scan type : Interlaced
    Scan order : Bottom Field First
    Compression mode : Lossy
    Bits/(Pixel*Frame) : 0.436
    Time code of first frame : 00:00:00:00
    Time code source : Group of pictures header
    GOP, Open/Closed : Closed
    Stream size : 105 MiB (73%)
    Writing library : http://vip-files.net
    Color primaries : BT.601 NTSC
    Transfer characteristics : BT.601
    Matrix coefficients : BT.601

    Audio
    ID : 189 (0xBD)-160 (0xA0)
    Format : PCM
    Format settings, Endianness : Big
    Format settings, Sign : Signed
    Muxing mode : DVD-Video
    Duration : 3mn 14s
    Bit rate mode : Constant
    Bit rate : 1 536 Kbps
    Channel(s) : 2 channels
    Sampling rate : 48.0 KHz
    Bit depth : 16 bits
    Stream size : 35.7 MiB (25%)


    Link(s):
    Hidden Content:
    You must either reply or click 'Like' to see the hidden information contained here.
     
  2. Jorge Barrionuevo

    Jorge Barrionuevo Well-Known Member

    Joined:
    Jun 9, 2015
    Messages:
    816
    Likes Received:
    269
    Muchas Gracias CELOBRAZiL! Plz share the links.
     
  3. CELOBRAZiL

    CELOBRAZiL Well-Known Member Capper V . I . P. Donor

    Joined:
    Oct 2, 2013
    Messages:
    1,772
    Likes Received:
    4,971
    @Jorge Barrionuevo the link is inside my thread... You have to press "Like" button or reply the post to see the link! :)
     
  4. Jorge Barrionuevo

    Jorge Barrionuevo Well-Known Member

    Joined:
    Jun 9, 2015
    Messages:
    816
    Likes Received:
    269
    I have seen the only link is zippyshare but it doesn't work. Can u share the Mega or Cloudmail.ru links? Plz!
     
  5. zeqonbritney

    zeqonbritney Member

    Joined:
    Dec 2, 2015
    Messages:
    114
    Likes Received:
    15
  6. andy80

    andy80 Member

    Joined:
    Sep 25, 2016
    Messages:
    59
    Likes Received:
    7
    thanks man
     
  7. dinhotwain

    dinhotwain Member

    Joined:
    Jan 1, 2015
    Messages:
    442
    Likes Received:
    11
  8. Fernando

    Fernando Member

    Joined:
    Jul 22, 2014
    Messages:
    443
    Likes Received:
    3
    thanks
     
  9. chitarraspee20

    chitarraspee20 Member

    Joined:
    Feb 15, 2017
    Messages:
    118
    Likes Received:
    2
    sssssssssssssssss