DVD Sixpence None The Richer - Kiss Me DVD NTSC 480i PCM [vip-files.net]

Discussion in 'SD' started by CELOBRAZiL, Jan 10, 2017.

  1. CELOBRAZiL

    CELOBRAZiL Well-Known Member Capper V . I . P. Donor

    Joined:
    Oct 2, 2013
    Messages:
    4,087
    Likes Received:
    12,843
    Sixpence None The Richer - Kiss Me DVD NTSC 480i PCM [vip-files.net]

    [​IMG]



    Format : MPEG-PS
    File size : 143 MiB
    Duration : 3mn 14s
    Overall bit rate mode : Variable
    Overall bit rate : 6 170 Kbps
    Writing library : http://vip-files.net

    Video
    ID : 224 (0xE0)
    Format : MPEG Video
    Format version : Version 2
    Format profile : [email protected]
    Format settings, BVOP : Yes
    Format settings, Matrix : Custom
    Format settings, GOP : M=3, N=15
    Format settings, picture structure : Frame
    Duration : 3mn 14s
    Bit rate mode : Variable
    Bit rate : 4 511 Kbps
    Maximum bit rate : 8 000 Kbps
    Width : 720 pixels
    Height : 480 pixels
    Display aspect ratio : 4:3
    Frame rate : 29.970 fps
    Standard : NTSC
    Color space : YUV
    Chroma subsampling : 4:2:0
    Bit depth : 8 bits
    Scan type : Interlaced
    Scan order : Bottom Field First
    Compression mode : Lossy
    Bits/(Pixel*Frame) : 0.436
    Time code of first frame : 00:00:00:00
    Time code source : Group of pictures header
    GOP, Open/Closed : Closed
    Stream size : 105 MiB (73%)
    Writing library : http://vip-files.net
    Color primaries : BT.601 NTSC
    Transfer characteristics : BT.601
    Matrix coefficients : BT.601

    Audio
    ID : 189 (0xBD)-160 (0xA0)
    Format : PCM
    Format settings, Endianness : Big
    Format settings, Sign : Signed
    Muxing mode : DVD-Video
    Duration : 3mn 14s
    Bit rate mode : Constant
    Bit rate : 1 536 Kbps
    Channel(s) : 2 channels
    Sampling rate : 48.0 KHz
    Bit depth : 16 bits
    Stream size : 35.7 MiB (25%)

    Link(s):
    Hidden Content:
    You must either reply or click 'Like' to see the hidden information contained here.
     
    Last edited: Aug 19, 2017
  2. Jorge Barrionuevo

    Jorge Barrionuevo Well-Known Member

    Joined:
    Jun 9, 2015
    Messages:
    1,263
    Likes Received:
    494
    Muchas Gracias CELOBRAZiL! Plz share the links.
     
  3. CELOBRAZiL

    CELOBRAZiL Well-Known Member Capper V . I . P. Donor

    Joined:
    Oct 2, 2013
    Messages:
    4,087
    Likes Received:
    12,843
    @Jorge Barrionuevo the link is inside my thread... You have to press "Like" button or reply the post to see the link! :)
     
  4. Jorge Barrionuevo

    Jorge Barrionuevo Well-Known Member

    Joined:
    Jun 9, 2015
    Messages:
    1,263
    Likes Received:
    494
    I have seen the only link is zippyshare but it doesn't work. Can u share the Mega or Cloudmail.ru links? Plz!
     
  5. zeqonbritney

    zeqonbritney Active Member

    Joined:
    Dec 2, 2015
    Messages:
    356
    Likes Received:
    45
  6. andy80

    andy80 Member

    Joined:
    Sep 25, 2016
    Messages:
    77
    Likes Received:
    10
    thanks man
     
    CELOBRAZiL likes this.
  7. dinhotwain

    dinhotwain Member

    Joined:
    Jan 1, 2015
    Messages:
    613
    Likes Received:
    23
    thanks
     
    CELOBRAZiL likes this.
  8. Fernando

    Fernando Member

    Joined:
    Jul 22, 2014
    Messages:
    664
    Likes Received:
    9
    thanks
     
    CELOBRAZiL likes this.
  9. Maurovillanueva

    Maurovillanueva New Member

    Joined:
    Jul 20, 2016
    Messages:
    28
    Likes Received:
    1
  10. Sunshining

    Sunshining New Member

    Joined:
    Jan 21, 2017
    Messages:
    9
    Likes Received:
    1
    Thank you so much bro!
     
    CELOBRAZiL likes this.
  11. lyana94

    lyana94 Well-Known Member

    Joined:
    Jul 5, 2017
    Messages:
    1,210
    Likes Received:
    41
    t
    hanjj
     
  12. vaquita69

    vaquita69 Member

    Joined:
    Mar 27, 2016
    Messages:
    225
    Likes Received:
    4
    thanks
     
    CELOBRAZiL likes this.
  13. kyros

    kyros Member

    Joined:
    Oct 21, 2015
    Messages:
    486
    Likes Received:
    17
    thanks
     
    CELOBRAZiL likes this.
  14. kakaaws

    kakaaws Member

    Joined:
    Jan 7, 2017
    Messages:
    143
    Likes Received:
    13