MASTER Sirvan Khosravi - Inja Jaye Moondan Nist [Master 1080p-Hossein Enr7que]

Discussion in 'MASTER & MASTER RIP' started by Hossein Enr7que, Dec 6, 2017.

  1. Hossein Enr7que

    Hossein Enr7que Enriquette . ZQUAD . XO

    Joined:
    May 13, 2016
    Messages:
    932
    Likes Received:
    1,181
    [​IMG]
    Code:
    General
    Complete name                            : C:\Users\Administrator\Downloads\Telegram Desktop\Sirvan Khosravi - Inja Jaye Moondan Nist [Master 1080p-Hossein Enr7que].mp4
    Format                                   : MPEG-4
    Format profile                           : Base Media / Version 2
    Codec ID                                 : mp42 (mp42/mp41)
    File size                                : 285 MiB
    Duration                                 : 4 min 38 s
    Overall bit rate mode                    : Variable
    Overall bit rate                         : 8 606 kb/s
    Encoded date                             : UTC 2017-11-28 13:04:34
    Tagged date                              : UTC 2017-11-28 13:04:37
    ©TIM                                     : 00:03:51:18
    ©TSC                                     : 25
    ©TSZ                                     : 1
    
    Video
    ID                                       : 1
    Format                                   : AVC
    Format/Info                              : Advanced Video Codec
    Format profile                           : [email protected]
    Format settings, CABAC                   : Yes
    Format settings, RefFrames               : 3 frames
    Codec ID                                 : avc1
    Codec ID/Info                            : Advanced Video Coding
    Duration                                 : 4 min 38 s
    Bit rate                                 : 8 279 kb/s
    Width                                    : 1 920 pixels
    Height                                   : 1 080 pixels
    Display aspect ratio                     : 16:9
    Frame rate mode                          : Constant
    Frame rate                               : 25.000 FPS
    Standard                                 : PAL
    Color space                              : YUV
    Chroma subsampling                       : 4:2:0
    Bit depth                                : 8 bits
    Scan type                                : Progressive
    Bits/(Pixel*Frame)                       : 0.160
    Stream size                              : 274 MiB (96%)
    Language                                 : English
    Encoded date                             : UTC 2017-11-28 13:04:34
    Tagged date                              : UTC 2017-11-28 13:04:34
    Color range                              : Limited
    Color primaries                          : BT.709
    Transfer characteristics                 : BT.709
    Matrix coefficients                      : BT.709
    
    Audio
    ID                                       : 2
    Format                                   : AAC
    Format/Info                              : Advanced Audio Codec
    Format profile                           : LC
    Codec ID                                 : 40
    Duration                                 : 4 min 38 s
    Source duration                          : 4 min 38 s
    Bit rate mode                            : Variable
    Bit rate                                 : 317 kb/s
    Maximum bit rate                         : 405 kb/s
    Channel(s)                               : 2 channels
    Channel positions                        : Front: L R
    Sampling rate                            : 48.0 kHz
    Frame rate                               : 46.875 FPS (1024 SPF)
    Compression mode                         : Lossy
    Stream size                              : 10.5 MiB (4%)
    Source stream size                       : 10.5 MiB (4%)
    Language                                 : English
    Encoded date                             : UTC 2017-11-28 13:04:34
    Tagged date                              : UTC 2017-11-28 13:04:34
    Server: MEGA
    Hidden Content:
    You must either reply or click 'Like' to see the hidden information contained here.
     
  2. Loading...