Sia - The Greatest (AAC-WebMaster-1080p-Abdi)

Discussion in 'WEB MASTER' started by abdi, Oct 22, 2016.

  1. abdi

    abdi Nicki and Ariana fan V . I . P. Uploader

    Joined:
    Sep 23, 2014
    Messages:
    2,115
    Likes Received:
    6,685
    Sia - The Greatest (AAC-WebMaster-1080p-Abdi)
    [​IMG]
    [​IMG]
    General
    Complete name : Sia - The Greatest (AAC-WebMaster-1080p-Abdi).mp4
    Format : MPEG-4
    Format profile : Base Media
    Codec ID : isom
    File size : 385 MiB
    Duration : 5mn 59s
    Overall bit rate : 8 989 Kbps
    Writing application : Lavf57.25.100

    Video
    ID : 1
    Format : AVC
    Format/Info : Advanced Video Codec
    Format profile : [email protected]
    Format settings, CABAC : Yes
    Format settings, ReFrames : 3 frames
    Format settings, GOP : M=1, N=48
    Codec ID : avc1
    Codec ID/Info : Advanced Video Coding
    Duration : 5mn 59s
    Bit rate : 9 000 Kbps
    Width : 1 920 pixels
    Height : 1 080 pixels
    Display aspect ratio : 16:9
    Frame rate mode : Constant
    Frame rate : 23.976 fps
    Color space : YUV
    Chroma subsampling : 4:2:0
    Bit depth : 8 bits
    Scan type : Progressive
    Bits/(Pixel*Frame) : 0.181
    Stream size : 372 MiB (97%)
    Writing library : x264 core 142 r2389 956c8d8
    Encoding settings : cabac=1 / ref=3 / deblock=1:0:0 / analyse=0x3:0x113 / me=hex / subme=7 / psy=1 / psy_rd=1.00:0.00 / mixed_ref=1 / me_range=16 / chroma_me=1 / trellis=1 / 8x8dct=1 / cqm=0 / deadzone=21,11 / fast_pskip=1 / chroma_qp_offset=-2 / threads=2 / lookahead_threads=2 / sliced_threads=1 / slices=2 / nr=0 / decimate=1 / interlaced=0 / bluray_compat=0 / constrained_intra=0 / bframes=0 / weightp=2 / keyint=48 / keyint_min=25 / scenecut=0 / intra_refresh=0 / rc=abr / mbtree=0 / bitrate=9000 / ratetol=1.0 / qcomp=0.60 / qpmin=0 / qpmax=69 / qpstep=4 / ip_ratio=1.40 / aq=1:1.00

    Audio
    ID : 2
    Format : AAC
    Format/Info : Advanced Audio Codec
    Format profile : LC
    Codec ID : 40
    Duration : 5mn 59s
    Bit rate mode : Constant
    Bit rate : 300 Kbps
    Channel(s) : 2 channels
    Channel positions : Front: L R
    Sampling rate : 48.0 KHz
    Compression mode : Lossy
    Stream size : 12.8 MiB (3%)
    Language : English
    Hidden Content:
    You must reply before you can see the hidden data contained here.
     
    Aph3x and johymbim like this.
  2. Loading...


  3. jeaneyne

    jeaneyne Well-Known Member

    Joined:
    Oct 21, 2013
    Messages:
    655
    Likes Received:
    455
  4. xmgt

    xmgt Member

    Joined:
    May 21, 2016
    Messages:
    313
    Likes Received:
    6
    great quality thanks
     
  5. benja

    benja Well-Known Member

    Joined:
    Jan 8, 2014
    Messages:
    1,048
    Likes Received:
    62
    Thank you so much!!!
     
  6. BetaKsi

    BetaKsi Well-Known Member

    Joined:
    Oct 18, 2015
    Messages:
    828
    Likes Received:
    327
    Thank you))
     
  7. quake2

    quake2 Active Member

    Joined:
    Oct 11, 2014
    Messages:
    890
    Likes Received:
    49
    thanks
     
  8. johymbim

    johymbim Member

    Joined:
    Jul 30, 2014
    Messages:
    457
    Likes Received:
    15
    Thank you
     
  9. dark1angel

    dark1angel Member

    Joined:
    Oct 7, 2013
    Messages:
    98
    Likes Received:
    5
  10. hoemogenic

    hoemogenic Member

    Joined:
    Aug 15, 2016
    Messages:
    33
    Likes Received:
    3
  11. Attention

    Attention Active Member

    Joined:
    Nov 30, 2013
    Messages:
    564
    Likes Received:
    30
    Thanks!
     
  12. alifaxa

    alifaxa Member

    Joined:
    Oct 21, 2015
    Messages:
    351
    Likes Received:
    5
  13. thatonedread

    thatonedread Active Member

    Joined:
    May 4, 2016
    Messages:
    469
    Likes Received:
    31
    Thank you so much!!!
     
  14. mizdot

    mizdot Well-Known Member

    Joined:
    Nov 13, 2014
    Messages:
    1,237
    Likes Received:
    25
    tnx man
     
  15. Akbar Khalid

    Akbar Khalid Member

    Joined:
    Aug 31, 2016
    Messages:
    166
    Likes Received:
    10
    Please post this video in Master HD. I love this song so much and I need it in the best quality. Don't mind the file size.
     
  16. xavier777

    xavier777 Active Member

    Joined:
    Aug 29, 2016
    Messages:
    373
    Likes Received:
    34
    Thanks
     
  17. yhkim

    yhkim Active Member

    Joined:
    Nov 19, 2013
    Messages:
    701
    Likes Received:
    6
    thank you so much
     
  18. koko_love

    koko_love Member

    Joined:
    Jun 3, 2015
    Messages:
    381
    Likes Received:
    12
    Thank you:)
     
  19. vogor

    vogor Member

    Joined:
    Oct 5, 2016
    Messages:
    116
    Likes Received:
    0
    Super
     
  20. 8luky7

    8luky7 Member

    Joined:
    Nov 2, 2016
    Messages:
    272
    Likes Received:
    2
    rrrr ffffffff
     
  21. gayway

    gayway Active Member

    Joined:
    Mar 10, 2016
    Messages:
    838
    Likes Received:
    48
    Thank You!