Sia feat. Sean Paul - Cheap Thrills (BridgeHD-1080i-MP2-Olgold)-HDMania

Discussion in 'Bridge HD' started by Olgold, Oct 10, 2016.

  1. Olgold

    Olgold Well-Known Member Capper

    Joined:
    Aug 19, 2015
    Messages:
    386
    Likes Received:
    1,326
    Sia feat. Sean Paul - Cheap Thrills
    [​IMG]
    General
    Format : MPEG-TS
    File size : 167 MiB
    Duration : 3 min 33 s
    Overall bit rate mode : Variable
    Overall bit rate : 6 497 kb/s

    Video
    Format : AVC
    Format/Info : Advanced Video Codec
    Format profile : [email protected]
    Format settings, CABAC : Yes
    Format settings, ReFrames : 4 frames
    Duration : 3 min 32 s
    Bit rate : 5 983 kb/s
    Width : 1 920 pixels
    Height : 1 080 pixels
    Display aspect ratio : 16:9
    Frame rate : 25.000 FPS
    Standard : Component
    Color space : YUV
    Chroma subsampling : 4:2:0
    Bit depth : 8 bits
    Scan type : Interlaced
    Scan type, store method : Separated fields
    Scan order : Top Field First
    Bits/(Pixel*Frame) : 0.115
    Stream size : 151 MiB (90%)
    Color range : Limited

    Audio
    Format : MPEG Audio
    Format version : Version 1
    Format profile : Layer 2
    Duration : 3 min 33 s
    Bit rate mode : Constant
    Bit rate : 192 kb/s
    Channel(s) : 2 channels
    Sampling rate : 48.0 kHz
    Compression mode : Lossy
    Delay relative to video : -493 ms
    Stream size : 4.90 MiB (3%)
    Password: Olgold

    Hidden Content:
    You must reply before you can see the hidden data contained here.
     
    CELOBRAZiL and rhea like this.
  2. Loading...


  3. rhea

    rhea Well-Known Member

    Joined:
    Jan 6, 2014
    Messages:
    5,396
    Likes Received:
    260
    thank you so much :)
     
  4. CELOBRAZiL

    CELOBRAZiL Well-Known Member Capper V . I . P. Donor

    Joined:
    Oct 2, 2013
    Messages:
    1,751
    Likes Received:
    4,921
    Thank you so much! :)
     
  5. changvang

    changvang New Member

    Joined:
    Mar 9, 2016
    Messages:
    20
    Likes Received:
    0
  6. Jrec

    Jrec Member

    Joined:
    May 11, 2016
    Messages:
    616
    Likes Received:
    23
    Thanks
     
  7. Jrec

    Jrec Member

    Joined:
    May 11, 2016
    Messages:
    616
    Likes Received:
    23
    Thanks
     
    lemmy likes this.
  8. goku20

    goku20 New Member

    Joined:
    Dec 28, 2016
    Messages:
    17
    Likes Received:
    0
    thanks
     
  9. trevorme

    trevorme Member

    Joined:
    Jan 12, 2017
    Messages:
    144
    Likes Received:
    1
    thanks
     
  10. master444

    master444 Member

    Joined:
    Feb 27, 2017
    Messages:
    103
    Likes Received:
    0
    terrrrrrrrrrriiiiiiiiiiiiiiiiiiiifffffffffffffffiiiiiiiiiiiiiiiiiiiiicccccccccccccccccc