Sia - Elastic Heart [WebMaster-1080p-thankstome]

Discussion in 'WEB MASTER' started by thankstome, Jul 10, 2016.

  1. thankstome

    thankstome Well-Known Member

    Joined:
    Feb 6, 2014
    Messages:
    813
    Likes Received:
    1,059
    [​IMG]
    [​IMG]
    [​IMG]

    Code:
    Format                                   : MPEG-4
    Format profile                           : Base Media
    Codec ID                                 : isom
    File size                                : 337 MiB
    Duration                                 : 5mn 7s
    Overall bit rate                         : 9 207 Kbps
    Writing application                      : Lavf57.25.100
    
    Video
    ID                                       : 1
    Format                                   : AVC
    Format/Info                              : Advanced Video Codec
    Format profile                           : [email protected]
    Format settings, CABAC                   : Yes
    Format settings, ReFrames                : 3 frames
    Format settings, GOP                     : M=1, N=48
    Codec ID                                 : avc1
    Codec ID/Info                            : Advanced Video Coding
    Duration                                 : 5mn 7s
    Bit rate                                 : 9 000 Kbps
    Width                                    : 1 920 pixels
    Height                                   : 1 080 pixels
    Display aspect ratio                     : 16:9
    Frame rate mode                          : Constant
    Frame rate                               : 23.976 fps
    Color space                              : YUV
    Chroma subsampling                       : 4:2:0
    Bit depth                                : 8 bits
    Scan type                                : Progressive
    Bits/(Pixel*Frame)                       : 0.181
    Stream size                              : 325 MiB (96%)
    Writing library                          : x264 core 142 r2389 956c8d8
    Encoding settings                        : cabac=1 / ref=3 / deblock=1:0:0 / analyse=0x3:0x113 / me=hex / subme=7 / psy=1 / psy_rd=1.00:0.00 / mixed_ref=1 / me_range=16 / chroma_me=1 / trellis=1 / 8x8dct=1 / cqm=0 / deadzone=21,11 / fast_pskip=1 / chroma_qp_offset=-2 / threads=2 / lookahead_threads=2 / sliced_threads=1 / slices=2 / nr=0 / decimate=1 / interlaced=0 / bluray_compat=0 / constrained_intra=0 / bframes=0 / weightp=2 / keyint=48 / keyint_min=25 / scenecut=0 / intra_refresh=0 / rc=abr / mbtree=0 / bitrate=9000 / ratetol=1.0 / qcomp=0.60 / qpmin=0 / qpmax=69 / qpstep=4 / ip_ratio=1.40 / aq=1:1.00
    
    Audio
    ID                                       : 2
    Format                                   : AAC
    Format/Info                              : Advanced Audio Codec
    Format profile                           : LC
    Codec ID                                 : 40
    Duration                                 : 5mn 7s
    Bit rate mode                            : Constant
    Bit rate                                 : 335 Kbps
    Channel(s)                               : 2 channels
    Channel positions                        : Front: L R
    Sampling rate                            : 48.0 KHz
    Compression mode                         : Lossy
    Stream size                              : 12.3 MiB (4%)
    Language                                 : English
    
    
    Hidden Content:
    You must reply before you can see the hidden data contained here.
     
  2. Loading...


  3. Dreamer

    Dreamer Lana Del Rey ♥ Capper V . I . P. Uploader

    Joined:
    Dec 4, 2014
    Messages:
    2,598
    Likes Received:
    2,916
    Thank you! :)
     
  4. quake2

    quake2 Active Member

    Joined:
    Oct 11, 2014
    Messages:
    919
    Likes Received:
    54
    thanks
     
  5. marcusbr20

    marcusbr20 Member

    Joined:
    Feb 14, 2016
    Messages:
    339
    Likes Received:
    4
  6. shing000

    shing000 Member

    Joined:
    Mar 13, 2016
    Messages:
    778
    Likes Received:
    21
    gracias
     
  7. MajorVi

    MajorVi Member

    Joined:
    Feb 12, 2016
    Messages:
    422
    Likes Received:
    10
    Thank you
     
  8. khan

    khan Well-Known Member

    Joined:
    May 11, 2014
    Messages:
    1,208
    Likes Received:
    77
    thanks
     
  9. koko_love

    koko_love Member

    Joined:
    Jun 3, 2015
    Messages:
    438
    Likes Received:
    14
    Thank you :)
     
  10. mizdot

    mizdot Well-Known Member

    Joined:
    Nov 13, 2014
    Messages:
    1,247
    Likes Received:
    27
    tnx man
     
  11. gayway

    gayway Active Member

    Joined:
    Mar 10, 2016
    Messages:
    846
    Likes Received:
    48
    Thank You!
     
  12. Zeeh

    Zeeh Member

    Joined:
    Mar 20, 2015
    Messages:
    516
    Likes Received:
    10
    thank you
     
  13. ssleay

    ssleay Member

    Joined:
    Jun 26, 2016
    Messages:
    114
    Likes Received:
    2
    thanks
     
  14. Akbar Khalid

    Akbar Khalid Member

    Joined:
    Aug 31, 2016
    Messages:
    185
    Likes Received:
    11
    Thank you for the upload :)
     
  15. astroninja

    astroninja Member

    Joined:
    Jul 5, 2015
    Messages:
    137
    Likes Received:
    5
    Thank You!
     
  16. aquafor

    aquafor Member

    Joined:
    Jan 16, 2016
    Messages:
    121
    Likes Received:
    0
    thanks
     
  17. Leonardo7777777

    Leonardo7777777 Member

    Joined:
    Jan 3, 2016
    Messages:
    280
    Likes Received:
    13
  18. Athos

    Athos Active Member

    Joined:
    Dec 28, 2013
    Messages:
    203
    Likes Received:
    94
    thank you
     
  19. Attention

    Attention Active Member

    Joined:
    Nov 30, 2013
    Messages:
    563
    Likes Received:
    30
    Thanks!
     
  20. 8luky7

    8luky7 Member

    Joined:
    Nov 2, 2016
    Messages:
    280
    Likes Received:
    2
    rrrr ggg
     
  21. alyssaprimp

    alyssaprimp Well-Known Member

    Joined:
    May 22, 2016
    Messages:
    335
    Likes Received:
    636
    thank you