FLAC Sia - Courage to Change (From The Original Motion Picture "Music")(2020) TDL FLAC 44.1kHz 24bits

Discussion in 'Singles (lossless)' started by Brungor, Sep 25, 2020.

  1. Brungor

    Brungor From The Planet Glamtron

    Joined:
    Dec 9, 2015
    Messages:
    1,222
    Likes Received:
    800
    [​IMG]
    Audio
    Format : FLAC
    Format/Info : Free Lossless Audio Codec
    Duration : 4 min 52 s
    Bit rate mode : Variable
    Bit rate : 1 652 kb/s
    Channel(s) : 2 channels
    Channel layout : L R
    Sampling rate : 44.1 kHz
    Bit depth : 24 bits
    Compression mode : Lossless
    Stream size : 57.6 MiB (100%)
    Writing library : libFLAC 1.3.2 (UTC 2017-01-01)

    Hidden Content:
    You must reply before you can see the hidden data contained here.
     
  2. Loading...


  3. JooSeok

    JooSeok Member

    Joined:
    May 29, 2020
    Messages:
    234
    Likes Received:
    10
    Thanks u
     
  4. Mygamesonline222

    Mygamesonline222 Member

    Joined:
    Jul 1, 2020
    Messages:
    170
    Likes Received:
    7
    Wow .. thanks for the upload
     
  5. madgefan

    madgefan Active Member

    Joined:
    Feb 4, 2018
    Messages:
    695
    Likes Received:
    71
    thanks
     
  6. Loso

    Loso Well-Known Member

    Joined:
    Apr 15, 2020
    Messages:
    1,348
    Likes Received:
    181
    Thank
     
  7. wings-of-music

    wings-of-music Active Member

    Joined:
    Jul 13, 2018
    Messages:
    494
    Likes Received:
    56
  8. chandler002

    chandler002 Active Member

    Joined:
    Sep 25, 2016
    Messages:
    242
    Likes Received:
    28
    Thank you!
     
  9. SiaFurler

    SiaFurler Active Member

    Joined:
    Jun 18, 2017
    Messages:
    221
    Likes Received:
    56
    thanks
     
  10. kukhwan ko

    kukhwan ko Member

    Joined:
    Jul 17, 2020
    Messages:
    72
    Likes Received:
    5
    Thank you!
     
  11. oranekgonza0902

    oranekgonza0902 Member

    Joined:
    Sep 6, 2020
    Messages:
    173
    Likes Received:
    4
    Thanks for sharing
     
  12. tn5656

    tn5656 Well-Known Member

    Joined:
    Jan 20, 2017
    Messages:
    8,460
    Likes Received:
    610
    Thanks for this !!!
     
  13. unicorn0401

    unicorn0401 Member

    Joined:
    Dec 25, 2016
    Messages:
    104
    Likes Received:
    10
    Big thanks friend :)
    [​IMG]
    Audio
    Format : FLAC
    Format/Info : Free Lossless Audio Codec
    Duration : 4 min 52 s
    Bit rate mode : Variable
    Bit rate : 1 652 kb/s
    Channel(s) : 2 channels
    Channel layout : L R
    Sampling rate : 44.1 kHz
    Bit depth : 24 bits
    Compression mode : Lossless
    Stream size : 57.6 MiB (100%)
    Writing library : libFLAC 1.3.2 (UTC 2017-01-01)

    ***Hidden content cannot be quoted.***
    [/QUOTE]
     
  14. jaylo

    jaylo New Member

    Joined:
    Sep 26, 2020
    Messages:
    3
    Likes Received:
    0
    thank you
     
  15. kemeko

    kemeko Well-Known Member

    Joined:
    Nov 29, 2018
    Messages:
    1,341
    Likes Received:
    214
    Thanks!!!
     
  16. RAD

    RAD Member

    Joined:
    Aug 15, 2020
    Messages:
    71
    Likes Received:
    5
    thanks
     
  17. aydinyalcin

    aydinyalcin Member

    Joined:
    Jun 23, 2020
    Messages:
    151
    Likes Received:
    6
  18. Stepster

    Stepster Member

    Joined:
    Oct 7, 2016
    Messages:
    272
    Likes Received:
    21
  19. dewil31

    dewil31 Member

    Joined:
    May 21, 2017
    Messages:
    130
    Likes Received:
    2
    Thank you!
     
  20. webmagic242

    webmagic242 Active Member

    Joined:
    Jul 15, 2016
    Messages:
    525
    Likes Received:
    56
  21. DON KING

    DON KING Well-Known Member

    Joined:
    Dec 13, 2016
    Messages:
    1,871
    Likes Received:
    127