Sia - Cheap Thrills [WebMaster-1080p-thankstome]

Discussion in 'WEB MASTER' started by thankstome, Jul 10, 2016.

  1. thankstome

    thankstome Well-Known Member

    Joined:
    Feb 6, 2014
    Messages:
    809
    Likes Received:
    991
    [​IMG]
    [​IMG]
    [​IMG]

    Code:
    Format                                   : MPEG-4
    Format profile                           : Base Media
    Codec ID                                 : isom
    File size                                : 236 MiB
    Duration                                 : 3mn 33s
    Overall bit rate                         : 9 281 Kbps
    Writing application                      : Lavf57.25.100
    
    Video
    ID                                       : 1
    Format                                   : AVC
    Format/Info                              : Advanced Video Codec
    Format profile                           : [email protected]
    Format settings, CABAC                   : Yes
    Format settings, ReFrames                : 3 frames
    Format settings, GOP                     : M=1, N=48
    Codec ID                                 : avc1
    Codec ID/Info                            : Advanced Video Coding
    Duration                                 : 3mn 33s
    Bit rate                                 : 9 000 Kbps
    Width                                    : 1 920 pixels
    Height                                   : 1 080 pixels
    Display aspect ratio                     : 16:9
    Frame rate mode                          : Constant
    Frame rate                               : 23.976 fps
    Color space                              : YUV
    Chroma subsampling                       : 4:2:0
    Bit depth                                : 8 bits
    Scan type                                : Progressive
    Bits/(Pixel*Frame)                       : 0.181
    Stream size                              : 228 MiB (96%)
    Writing library                          : x264 core 142 r2389 956c8d8
    Encoding settings                        : cabac=1 / ref=3 / deblock=1:0:0 / analyse=0x3:0x113 / me=hex / subme=7 / psy=1 / psy_rd=1.00:0.00 / mixed_ref=1 / me_range=16 / chroma_me=1 / trellis=1 / 8x8dct=1 / cqm=0 / deadzone=21,11 / fast_pskip=1 / chroma_qp_offset=-2 / threads=8 / lookahead_threads=8 / sliced_threads=1 / slices=8 / nr=0 / decimate=1 / interlaced=0 / bluray_compat=0 / constrained_intra=0 / bframes=0 / weightp=2 / keyint=48 / keyint_min=25 / scenecut=0 / intra_refresh=0 / rc=abr / mbtree=0 / bitrate=9000 / ratetol=1.0 / qcomp=0.60 / qpmin=0 / qpmax=69 / qpstep=4 / ip_ratio=1.40 / aq=1:1.00
    
    Audio
    ID                                       : 2
    Format                                   : AAC
    Format/Info                              : Advanced Audio Codec
    Format profile                           : LC
    Codec ID                                 : 40
    Duration                                 : 3mn 33s
    Bit rate mode                            : Constant
    Bit rate                                 : 335 Kbps
    Channel(s)                               : 2 channels
    Channel positions                        : Front: L R
    Sampling rate                            : 48.0 KHz
    Compression mode                         : Lossy
    Stream size                              : 8.54 MiB (4%)
    Language                                 : English
    
    
    Hidden Content:
    You must reply before you can see the hidden data contained here.
     
    cool and carloskoschel like this.
  2. Dreamer

    Dreamer Lana Del Rey ♥ Capper Uploader

    Joined:
    Dec 4, 2014
    Messages:
    2,406
    Likes Received:
    2,450
    Thank you! :)
     
  3. marcusbr20

    marcusbr20 Member

    Joined:
    Feb 14, 2016
    Messages:
    339
    Likes Received:
    4
  4. shing000

    shing000 Member

    Joined:
    Mar 13, 2016
    Messages:
    584
    Likes Received:
    14
    gracias
     
  5. koko_love

    koko_love Member

    Joined:
    Jun 3, 2015
    Messages:
    338
    Likes Received:
    12
    Thank you :)
     
  6. mizdot

    mizdot Active Member

    Joined:
    Nov 13, 2014
    Messages:
    1,226
    Likes Received:
    25
    tnx man
     
  7. muratguren

    muratguren Member

    Joined:
    Mar 6, 2016
    Messages:
    749
    Likes Received:
    9
    thank you
     
  8. gayway

    gayway Active Member

    Joined:
    Mar 10, 2016
    Messages:
    830
    Likes Received:
    46
    Thank You!
     
  9. chetoverton

    chetoverton New Member

    Joined:
    Jul 23, 2016
    Messages:
    1
    Likes Received:
    0
  10. ssleay

    ssleay Member

    Joined:
    Jun 26, 2016
    Messages:
    109
    Likes Received:
    2
    thanks
     
  11. thatonedread

    thatonedread Active Member

    Joined:
    May 4, 2016
    Messages:
    441
    Likes Received:
    28
    Proper share bruh! Thank You
     
  12. nkt

    nkt Member

    Joined:
    May 17, 2015
    Messages:
    276
    Likes Received:
    21
    thank you
     
  13. angelm

    angelm Member

    Joined:
    Aug 5, 2016
    Messages:
    169
    Likes Received:
    6
    great
     
  14. khan

    khan Well-Known Member

    Joined:
    May 11, 2014
    Messages:
    1,111
    Likes Received:
    63
    good one
     
  15. princessrinisyah

    princessrinisyah Member

    Joined:
    Feb 13, 2016
    Messages:
    32
    Likes Received:
    1
  16. Newtracks

    Newtracks New Member

    Joined:
    Aug 16, 2016
    Messages:
    5
    Likes Received:
    0
    Thank you
     
  17. Tris

    Tris Member

    Joined:
    Dec 7, 2015
    Messages:
    59
    Likes Received:
    0
    thank you
     
  18. slill

    slill Member

    Joined:
    Jul 25, 2014
    Messages:
    929
    Likes Received:
    11
    thanks
     
  19. AlexMoore

    AlexMoore Member

    Joined:
    Jul 16, 2014
    Messages:
    49
    Likes Received:
    64
  20. aquafor

    aquafor Member

    Joined:
    Jan 16, 2016
    Messages:
    119
    Likes Received:
    0
    thanks