Sia - Cheap Thrills (VEVOtv HDTV-1080i 23Mbps) Danixat-HDMania

Discussion in 'VEVOtv' started by danixat, Mar 25, 2016.

  1. danixat

    danixat Katycat ^-^ Capper V . I . P. Uploader Archiver Donor

    Joined:
    Feb 23, 2014
    Messages:
    1,307
    Likes Received:
    10,427
    [​IMG]
    [​IMG]
    [​IMG]
    [​IMG]
    Code:
    General
    ID                             : 1 (0x1)
    Complete name                  : K:\Sia - Cheap Thrills (VEVOtv HDTV-1080i 23Mbps) Danixat-HDMania.ts
    Format                         : MPEG-TS
    File size                      : 614 MiB
    Duration                       : 3mn 34s
    Overall bit rate mode          : Variable
    Overall bit rate               : 24.0 Mbps
    
    Video
    ID                             : 100 (0x64)
    Menu ID                        : 2 (0x2)
    Format                         : AVC
    Format/Info                    : Advanced Video Codec
    Format profile                 : High@L4.0
    Format settings, CABAC         : Yes
    Format settings, ReFrames      : 2 frames
    Codec ID                       : 27
    Duration                       : 3mn 34s
    Bit rate mode                  : Variable
    Bit rate                       : 22.6 Mbps
    Maximum bit rate               : 15.0 Mbps
    Width                          : 1 920 pixels
    Height                         : 1 080 pixels
    Display aspect ratio           : 16:9
    Frame rate                     : 25.000 fps
    Color space                    : YUV
    Chroma subsampling             : 4:2:0
    Bit depth                      : 8 bits
    Scan type                      : MBAFF
    Bits/(Pixel*Frame)             : 0.436
    Stream size                    : 578 MiB (94%)
    
    Audio
    ID                             : 101 (0x65)
    Menu ID                        : 2 (0x2)
    Format                         : AAC
    Format/Info                    : Advanced Audio Codec
    Format version                 : Version 4
    Format profile                 : LC
    Muxing mode                    : ADTS
    Codec ID                       : 15
    Duration                       : 3mn 34s
    Bit rate mode                  : Variable
    Bit rate                       : 220 Kbps
    Channel(s)                     : 2 channels
    Channel positions              : Front: L R
    Sampling rate                  : 48.0 KHz
    Compression mode               : Lossy
    Delay relative to video        : -13ms
    Stream size                    : 5.62 MiB (1%)

    [​IMG]

    Download:
    Hidden Content:
    You must either reply or click 'Like' to see the hidden information contained here.
    CAPPED BY ME :victory:
     
  2. Loading...


  3. Rihanna

    Rihanna Active Member

    Joined:
    Feb 9, 2015
    Messages:
    237
    Likes Received:
    25
    thanks
     
  4. MaggieS

    MaggieS Well-Known Member

    Joined:
    Sep 19, 2014
    Messages:
    1,260
    Likes Received:
    83
    TNX U
     
  5. vistaelistic

    vistaelistic Member

    Joined:
    Mar 21, 2016
    Messages:
    519
    Likes Received:
    9
    Thank you
     
  6. jhl2016

    jhl2016 Member

    Joined:
    Mar 25, 2016
    Messages:
    223
    Likes Received:
    10
    Thank you so much
     
  7. P1956

    P1956 Well-Known Member

    Joined:
    Aug 18, 2014
    Messages:
    1,043
    Likes Received:
    119
    bad quality
     
  8. shing000

    shing000 Well-Known Member

    Joined:
    Mar 13, 2016
    Messages:
    1,966
    Likes Received:
    220
    gracias
     
  9. slill

    slill Active Member

    Joined:
    Jul 25, 2014
    Messages:
    1,188
    Likes Received:
    21
    thanks
     
  10. lpplus

    lpplus LP & MET Fan

    Joined:
    Sep 28, 2014
    Messages:
    942
    Likes Received:
    5,099
    thank you
     
  11. fisherTW

    fisherTW Well-Known Member

    Joined:
    Dec 3, 2014
    Messages:
    2,063
    Likes Received:
    550
    Thank you.:)
     
  12. xavier777

    xavier777 Active Member

    Joined:
    Aug 29, 2016
    Messages:
    590
    Likes Received:
    51
    Thank
     
  13. gayway

    gayway Well-Known Member

    Joined:
    Mar 10, 2016
    Messages:
    1,136
    Likes Received:
    84
    Thank You! More of SIA's in this great quality please. ^_^
     
  14. JohnBard

    JohnBard Member

    Joined:
    Apr 13, 2016
    Messages:
    130
    Likes Received:
    10
    thanks!!
     
  15. Jhosue

    Jhosue New Member

    Joined:
    Dec 10, 2015
    Messages:
    17
    Likes Received:
    1
    thanks sou mcuhs for this video
     
  16. benja

    benja Well-Known Member

    Joined:
    Jan 8, 2014
    Messages:
    2,045
    Likes Received:
    161
    Thank you
     
  17. varand_ic

    varand_ic Member

    Joined:
    Jan 4, 2016
    Messages:
    114
    Likes Received:
    1
    tnx . . .
     
  18. santa321

    santa321 Well-Known Member

    Joined:
    Dec 7, 2013
    Messages:
    1,998
    Likes Received:
    100
    thank you
     
  19. erroljr1977

    erroljr1977 Active Member

    Joined:
    Apr 18, 2017
    Messages:
    545
    Likes Received:
    28
    sweet
     
  20. clayo

    clayo Member

    Joined:
    Aug 25, 2017
    Messages:
    354
    Likes Received:
    22
    Thank YOu
     
  21. fxckpark

    fxckpark Member

    Joined:
    Mar 22, 2016
    Messages:
    214
    Likes Received:
    2
    thankss