Sia - Cheap Thrills (VEVOtv HDTV-1080i 23Mbps) Danixat-HDMania

Discussion in 'VEVOtv' started by danixat, Mar 25, 2016.

  1. danixat

    danixat Katycat ^-^ Capper V . I . P. Donor

    Joined:
    Feb 23, 2014
    Messages:
    1,145
    Likes Received:
    6,184
    [​IMG]
    [​IMG]
    [​IMG]
    [​IMG]
    Code:
    General
    ID                             : 1 (0x1)
    Complete name                  : K:\Sia - Cheap Thrills (VEVOtv HDTV-1080i 23Mbps) Danixat-HDMania.ts
    Format                         : MPEG-TS
    File size                      : 614 MiB
    Duration                       : 3mn 34s
    Overall bit rate mode          : Variable
    Overall bit rate               : 24.0 Mbps
    
    Video
    ID                             : 100 (0x64)
    Menu ID                        : 2 (0x2)
    Format                         : AVC
    Format/Info                    : Advanced Video Codec
    Format profile                 : [email protected]
    Format settings, CABAC         : Yes
    Format settings, ReFrames      : 2 frames
    Codec ID                       : 27
    Duration                       : 3mn 34s
    Bit rate mode                  : Variable
    Bit rate                       : 22.6 Mbps
    Maximum bit rate               : 15.0 Mbps
    Width                          : 1 920 pixels
    Height                         : 1 080 pixels
    Display aspect ratio           : 16:9
    Frame rate                     : 25.000 fps
    Color space                    : YUV
    Chroma subsampling             : 4:2:0
    Bit depth                      : 8 bits
    Scan type                      : MBAFF
    Bits/(Pixel*Frame)             : 0.436
    Stream size                    : 578 MiB (94%)
    
    Audio
    ID                             : 101 (0x65)
    Menu ID                        : 2 (0x2)
    Format                         : AAC
    Format/Info                    : Advanced Audio Codec
    Format version                 : Version 4
    Format profile                 : LC
    Muxing mode                    : ADTS
    Codec ID                       : 15
    Duration                       : 3mn 34s
    Bit rate mode                  : Variable
    Bit rate                       : 220 Kbps
    Channel(s)                     : 2 channels
    Channel positions              : Front: L R
    Sampling rate                  : 48.0 KHz
    Compression mode               : Lossy
    Delay relative to video        : -13ms
    Stream size                    : 5.62 MiB (1%)

    [​IMG]

    Download:
    Hidden Content:
    You must either reply or click 'Like' to see the hidden information contained here.
    CAPPED BY ME :victory:
     
    cool, lickmyass, stuart_micro and 4 others like this.
  2. Rihanna

    Rihanna Member

    Joined:
    Feb 9, 2015
    Messages:
    72
    Likes Received:
    7
    thanks
     
  3. MaggieS

    MaggieS Active Member

    Joined:
    Sep 19, 2014
    Messages:
    950
    Likes Received:
    36
    TNX U
     
  4. vistaelistic

    vistaelistic Member

    Joined:
    Mar 21, 2016
    Messages:
    292
    Likes Received:
    5
    Thank you
     
  5. jhl2016

    jhl2016 Member

    Joined:
    Mar 25, 2016
    Messages:
    92
    Likes Received:
    5
    Thank you so much
     
  6. P1956

    P1956 Active Member

    Joined:
    Aug 18, 2014
    Messages:
    320
    Likes Received:
    34
    bad quality
     
  7. shing000

    shing000 Member

    Joined:
    Mar 13, 2016
    Messages:
    628
    Likes Received:
    15
    gracias
     
  8. slill

    slill Member

    Joined:
    Jul 25, 2014
    Messages:
    929
    Likes Received:
    11
    thanks
     
  9. lpplus

    lpplus Well-Known Member

    Joined:
    Sep 28, 2014
    Messages:
    680
    Likes Received:
    1,607
    thank you
     
  10. fisherTW

    fisherTW Well-Known Member

    Joined:
    Dec 3, 2014
    Messages:
    1,471
    Likes Received:
    170
    Thank you.:)
     
  11. xavier777

    xavier777 Active Member

    Joined:
    Aug 29, 2016
    Messages:
    367
    Likes Received:
    32
    Thank
     
  12. gayway

    gayway Active Member

    Joined:
    Mar 10, 2016
    Messages:
    830
    Likes Received:
    46
    Thank You! More of SIA's in this great quality please. ^_^
     
  13. JohnBard

    JohnBard New Member

    Joined:
    Apr 13, 2016
    Messages:
    20
    Likes Received:
    3
    thanks!!
     
  14. Jhosue

    Jhosue New Member

    Joined:
    Dec 10, 2015
    Messages:
    8
    Likes Received:
    0
    thanks sou mcuhs for this video
     
  15. benja

    benja Well-Known Member

    Joined:
    Jan 8, 2014
    Messages:
    1,028
    Likes Received:
    62
    Thank you
     
  16. varand_ic

    varand_ic Member

    Joined:
    Jan 4, 2016
    Messages:
    88
    Likes Received:
    0
    tnx . . .