Sia - Chandelier [WebMaster-1080p-thankstome]

Discussion in 'WEB MASTER' started by thankstome, Jul 10, 2016.

  1. thankstome

    thankstome Well-Known Member

    Joined:
    Feb 6, 2014
    Messages:
    764
    Likes Received:
    917
    [​IMG]
    [​IMG]
    [​IMG]

    Code:
    Format                                   : MPEG-4
    Format profile                           : Base Media
    Codec ID                                 : isom
    File size                                : 261 MiB
    Duration                                 : 3mn 50s
    Overall bit rate                         : 9 505 Kbps
    Writing application                      : Lavf57.25.100
    
    Video
    ID                                       : 1
    Format                                   : AVC
    Format/Info                              : Advanced Video Codec
    Format profile                           : [email protected]
    Format settings, CABAC                   : Yes
    Format settings, ReFrames                : 3 frames
    Format settings, GOP                     : M=1, N=48
    Codec ID                                 : avc1
    Codec ID/Info                            : Advanced Video Coding
    Duration                                 : 3mn 50s
    Bit rate                                 : 9 000 Kbps
    Width                                    : 1 920 pixels
    Height                                   : 1 080 pixels
    Display aspect ratio                     : 16:9
    Frame rate mode                          : Constant
    Frame rate                               : 23.976 fps
    Color space                              : YUV
    Chroma subsampling                       : 4:2:0
    Bit depth                                : 8 bits
    Scan type                                : Progressive
    Bits/(Pixel*Frame)                       : 0.181
    Stream size                              : 252 MiB (96%)
    Writing library                          : x264 core 142 r2389 956c8d8
    Encoding settings                        : cabac=1 / ref=3 / deblock=1:0:0 / analyse=0x3:0x113 / me=hex / subme=7 / psy=1 / psy_rd=1.00:0.00 / mixed_ref=1 / me_range=16 / chroma_me=1 / trellis=1 / 8x8dct=1 / cqm=0 / deadzone=21,11 / fast_pskip=1 / chroma_qp_offset=-2 / threads=8 / lookahead_threads=8 / sliced_threads=1 / slices=8 / nr=0 / decimate=1 / interlaced=0 / bluray_compat=0 / constrained_intra=0 / bframes=0 / weightp=2 / keyint=48 / keyint_min=25 / scenecut=0 / intra_refresh=0 / rc=abr / mbtree=0 / bitrate=9000 / ratetol=1.0 / qcomp=0.60 / qpmin=0 / qpmax=69 / qpstep=4 / ip_ratio=1.40 / aq=1:1.00
    
    Audio
    ID                                       : 2
    Format                                   : AAC
    Format/Info                              : Advanced Audio Codec
    Format profile                           : LC
    Codec ID                                 : 40
    Duration                                 : 3mn 50s
    Bit rate mode                            : Constant
    Bit rate                                 : 331 Kbps
    Channel(s)                               : 2 channels
    Channel positions                        : Front: L R
    Sampling rate                            : 48.0 KHz
    Compression mode                         : Lossy
    Stream size                              : 9.09 MiB (3%)
    Language                                 : English
    
    
    Hidden Content:
    You must reply before you can see the hidden data contained here.
     
    Leonardo7777777 and Dreamer like this.
  2. Loading...


  3. Dreamer

    Dreamer ♫ It's Britney Bitch ♫ Capper Uploader

    Joined:
    Dec 4, 2014
    Messages:
    2,138
    Likes Received:
    1,809
    Thank you! :)
     
  4. quake2

    quake2 Active Member

    Joined:
    Oct 11, 2014
    Messages:
    774
    Likes Received:
    30
    thanks
     
  5. marcusbr20

    marcusbr20 Member

    Joined:
    Feb 14, 2016
    Messages:
    339
    Likes Received:
    4
  6. shing000

    shing000 Member

    Joined:
    Mar 13, 2016
    Messages:
    527
    Likes Received:
    12
    gracias
     
  7. koko_love

    koko_love Member

    Joined:
    Jun 3, 2015
    Messages:
    260
    Likes Received:
    9
    Thank you :)
     
  8. mizdot

    mizdot Active Member

    Joined:
    Nov 13, 2014
    Messages:
    1,148
    Likes Received:
    20
    tnx man
     
  9. gayway

    gayway Active Member

    Joined:
    Mar 10, 2016
    Messages:
    737
    Likes Received:
    33
    Thank You!
     
  10. GHN

    GHN Member

    Joined:
    Oct 27, 2014
    Messages:
    385
    Likes Received:
    10
    thanks
     
  11. ssleay

    ssleay Member

    Joined:
    Jun 26, 2016
    Messages:
    93
    Likes Received:
    2
    thanks
     
  12. TuanBui

    TuanBui Member

    Joined:
    Jun 3, 2016
    Messages:
    52
    Likes Received:
    3
    Thanks:x
     
  13. Leonardo7777777

    Leonardo7777777 Member

    Joined:
    Jan 3, 2016
    Messages:
    185
    Likes Received:
    8
    Thank you
     
  14. ginnnee994

    ginnnee994 Member

    Joined:
    Nov 13, 2013
    Messages:
    212
    Likes Received:
    5
    thank you
     
  15. Newtracks

    Newtracks New Member

    Joined:
    Aug 16, 2016
    Messages:
    5
    Likes Received:
    0
    Thank you
     
  16. Athos

    Athos Active Member

    Joined:
    Dec 28, 2013
    Messages:
    180
    Likes Received:
    83
    tthank you
     
  17. Evens01

    Evens01 Member

    Joined:
    Feb 5, 2016
    Messages:
    147
    Likes Received:
    2
    thanks
     
  18. slill

    slill Member

    Joined:
    Jul 25, 2014
    Messages:
    890
    Likes Received:
    7
    thanks
     
  19. AlexMoore

    AlexMoore Member

    Joined:
    Jul 16, 2014
    Messages:
    43
    Likes Received:
    56
  20. aquafor

    aquafor Member

    Joined:
    Jan 16, 2016
    Messages:
    112
    Likes Received:
    0
    thanks
     
  21. abcde54321

    abcde54321 Member

    Joined:
    Apr 6, 2014
    Messages:
    620
    Likes Received:
    16
    1 more time