Sia - Alive [WebMaster-1080p-thankstome]

Discussion in 'WEB MASTER' started by thankstome, Jul 10, 2016.

  1. thankstome

    thankstome Well-Known Member

    Joined:
    Feb 6, 2014
    Messages:
    834
    Likes Received:
    1,157
    [​IMG]
    [​IMG]
    [​IMG]

    Code:
    Format                                   : MPEG-4
    Format profile                           : Base Media
    Codec ID                                 : isom
    File size                                : 331 MiB
    Duration                                 : 4mn 59s
    Overall bit rate                         : 9 283 Kbps
    Writing application                      : Lavf57.25.100
    
    Video
    ID                                       : 1
    Format                                   : AVC
    Format/Info                              : Advanced Video Codec
    Format profile                           : [email protected]
    Format settings, CABAC                   : Yes
    Format settings, ReFrames                : 3 frames
    Format settings, GOP                     : M=1, N=48
    Codec ID                                 : avc1
    Codec ID/Info                            : Advanced Video Coding
    Duration                                 : 4mn 59s
    Bit rate                                 : 9 000 Kbps
    Width                                    : 1 920 pixels
    Height                                   : 1 080 pixels
    Display aspect ratio                     : 16:9
    Frame rate mode                          : Constant
    Frame rate                               : 25.000 fps
    Color space                              : YUV
    Chroma subsampling                       : 4:2:0
    Bit depth                                : 8 bits
    Scan type                                : Progressive
    Bits/(Pixel*Frame)                       : 0.174
    Stream size                              : 319 MiB (96%)
    Writing library                          : x264 core 142 r2389 956c8d8
    Encoding settings                        : cabac=1 / ref=3 / deblock=1:0:0 / analyse=0x3:0x113 / me=hex / subme=7 / psy=1 / psy_rd=1.00:0.00 / mixed_ref=1 / me_range=16 / chroma_me=1 / trellis=1 / 8x8dct=1 / cqm=0 / deadzone=21,11 / fast_pskip=1 / chroma_qp_offset=-2 / threads=2 / lookahead_threads=2 / sliced_threads=1 / slices=2 / nr=0 / decimate=1 / interlaced=0 / bluray_compat=0 / constrained_intra=0 / bframes=0 / weightp=2 / keyint=48 / keyint_min=25 / scenecut=0 / intra_refresh=0 / rc=abr / mbtree=0 / bitrate=9000 / ratetol=1.0 / qcomp=0.60 / qpmin=0 / qpmax=69 / qpstep=4 / ip_ratio=1.40 / aq=1:1.00
    
    Audio
    ID                                       : 2
    Format                                   : AAC
    Format/Info                              : Advanced Audio Codec
    Format profile                           : LC
    Codec ID                                 : 40
    Duration                                 : 4mn 59s
    Bit rate mode                            : Constant
    Bit rate                                 : 327 Kbps
    Channel(s)                               : 2 channels
    Channel positions                        : Front: L R
    Sampling rate                            : 48.0 KHz
    Compression mode                         : Lossy
    Stream size                              : 11.7 MiB (4%)
    Language                                 : English
    
    
    Hidden Content:
    You must reply before you can see the hidden data contained here.
     
    gigihadid, dandeluon and Dreamer like this.
  2. Loading...


  3. Dreamer

    Dreamer Lana Del Rey ♥ Halsey Capper V . I . P. Uploader

    Joined:
    Dec 4, 2014
    Messages:
    2,810
    Likes Received:
    3,947
    Thank you! :)
     
  4. marcusbr20

    marcusbr20 Member

    Joined:
    Feb 14, 2016
    Messages:
    339
    Likes Received:
    4
  5. koko_love

    koko_love Member

    Joined:
    Jun 3, 2015
    Messages:
    504
    Likes Received:
    17
    Thank you :)
     
  6. gayway

    gayway Active Member

    Joined:
    Mar 10, 2016
    Messages:
    856
    Likes Received:
    53
    Thank You!
     
  7. ssleay

    ssleay Member

    Joined:
    Jun 26, 2016
    Messages:
    120
    Likes Received:
    2
    thanks
     
  8. aquafor

    aquafor Member

    Joined:
    Jan 16, 2016
    Messages:
    121
    Likes Received:
    0
    thanks
     
  9. khan

    khan Well-Known Member

    Joined:
    May 11, 2014
    Messages:
    1,266
    Likes Received:
    87
    thanks
     
  10. 8luky7

    8luky7 Member

    Joined:
    Nov 2, 2016
    Messages:
    290
    Likes Received:
    2
    thanx aku
     
  11. marcelox14

    marcelox14 Member

    Joined:
    Jan 8, 2017
    Messages:
    104
    Likes Received:
    16
    thanks
     
  12. vogor

    vogor Member

    Joined:
    Oct 5, 2016
    Messages:
    122
    Likes Received:
    0
    Super
     
  13. MishaISay

    MishaISay New Member

    Joined:
    Mar 23, 2017
    Messages:
    5
    Likes Received:
    0
    Thank you
     
  14. noriscout

    noriscout Active Member

    Joined:
    Apr 26, 2017
    Messages:
    290
    Likes Received:
    63
    Zaebis'
     
  15. Vinny

    Vinny Active Member

    Joined:
    Dec 26, 2013
    Messages:
    3,430
    Likes Received:
    22
    Thanks! ;-D
     
  16. alwaysinthamood

    alwaysinthamood Member

    Joined:
    Apr 10, 2017
    Messages:
    80
    Likes Received:
    35
  17. dandeluon

    dandeluon New Member

    Joined:
    Jul 18, 2017
    Messages:
    7
    Likes Received:
    0
    thank you
     
  18. aaxiaoguang

    aaxiaoguang Member

    Joined:
    Aug 9, 2017
    Messages:
    253
    Likes Received:
    0
  19. timethrow

    timethrow Member

    Joined:
    Jun 24, 2017
    Messages:
    118
    Likes Received:
    0
  20. gigihadid

    gigihadid Member

    Joined:
    Aug 19, 2017
    Messages:
    30
    Likes Received:
    0
  21. Bruno77

    Bruno77 Member

    Joined:
    Sep 12, 2016
    Messages:
    637
    Likes Received:
    7
    Thanks