Shawn Mendes - Nervous VH1HD 1080i HDTV DD2.0 H.264 CELOBRAZiL-HDMania

Discussion in 'VH1 HD' started by CELOBRAZiL, Jul 12, 2018.

  1. CELOBRAZiL

    CELOBRAZiL Well-Known Member Capper V . I . P. Donor

    Joined:
    Oct 2, 2013
    Messages:
    5,293
    Likes Received:
    16,882
    Shawn Mendes - Nervous VH1HD 1080i HDTV DD2.0 H.264 CELOBRAZiL-HDMania

    [​IMG]



    Format : MPEG-TS
    File size : 123 MiB
    Duration : 2 min 45 s
    Overall bit rate mode : Variable
    Overall bit rate : 6 207 kb/s

    Video
    ID : 5408 (0x1520)
    Menu ID : 5416 (0x1528)
    Format : AVC
    Format/Info : Advanced Video Codec
    Format profile : High@L4
    Format settings : CABAC / 3 Ref Frames
    Format settings, CABAC : Yes
    Format settings, RefFrames : 3 frames
    Codec ID : 27
    Duration : 2 min 45 s
    Bit rate : 5 513 kb/s
    Width : 1 920 pixels
    Height : 1 080 pixels
    Display aspect ratio : 16:9
    Frame rate : 29.970 (30000/1001) FPS
    Color space : YUV
    Chroma subsampling : 4:2:0
    Bit depth : 8 bits
    Scan type : MBAFF
    Scan type, store method : Interleaved fields
    Scan order : Top Field First
    Bits/(Pixel*Frame) : 0.089
    Stream size : 109 MiB (89%)

    Audio
    ID : 5409 (0x1521)
    Menu ID : 5416 (0x1528)
    Format : AC-3
    Format/Info : Audio Coding 3
    Codec ID : 129
    Duration : 2 min 45 s
    Bit rate mode : Constant
    Bit rate : 384 kb/s
    Channel(s) : 2 channels
    Channel positions : Front: L R
    Sampling rate : 48.0 kHz
    Frame rate : 31.250 FPS (1536 SPF)
    Bit depth : 16 bits
    Compression mode : Lossy
    Stream size : 7.59 MiB (6%)
    Language : English
    Service kind : Complete Main


    Link(s):
    Hidden Content:
    You must either reply or click 'Like' to see the hidden information contained here.
     
    Last edited: Jul 18, 2018 at 9:50 AM
    rvden, Thassyo, Dreamer and 1 other person like this.
  2. Loading...


  3. CELOBRAZiL

    CELOBRAZiL Well-Known Member Capper V . I . P. Donor

    Joined:
    Oct 2, 2013
    Messages:
    5,293
    Likes Received:
    16,882
  4. rhea

    rhea Well-Known Member

    Joined:
    Jan 6, 2014
    Messages:
    7,848
    Likes Received:
    1,002
    thank you so much :)
     
    CELOBRAZiL likes this.
  5. Thassyo

    Thassyo Well-Known Member

    Joined:
    Oct 9, 2013
    Messages:
    2,829
    Likes Received:
    1,276
    Thanks!
     
    CELOBRAZiL likes this.
  6. Zatimi

    Zatimi Active Member

    Joined:
    Aug 27, 2014
    Messages:
    851
    Likes Received:
    201
    Thank You so much
     
    CELOBRAZiL likes this.
  7. rvden

    rvden Well-Known Member

    Joined:
    Apr 9, 2017
    Messages:
    526
    Likes Received:
    373
    Thank you!
     
    CELOBRAZiL likes this.
  8. CELOBRAZiL

    CELOBRAZiL Well-Known Member Capper V . I . P. Donor

    Joined:
    Oct 2, 2013
    Messages:
    5,293
    Likes Received:
    16,882
    Added mega link! :)
     
  9. Lucky

    Lucky Active Member

    Joined:
    Sep 26, 2016
    Messages:
    524
    Likes Received:
    49
    thanks :love:
     
    CELOBRAZiL likes this.