Shania Twain - From This Moment On (GACHD) 1080i H.264 DD2.0-HDMania

Discussion in 'GAC HD' started by rgf72k, Jul 13, 2015.

  1. rgf72k

    rgf72k Founder Staff Member AdMiN Capper Uploader

    Joined:
    Oct 1, 2013
    Messages:
    1,200
    Likes Received:
    17,496
    [​IMG]

    General
    ID : 1 (0x1)
    Complete name : Shania Twain - From This Moment On (GACHD) 1080i H.264 DD2.0-HDMania.ts
    Format : MPEG-TS
    File size : 397 MiB
    Duration : 3mn 55s
    Overall bit rate mode : Variable
    Overall bit rate : 14.1 Mbps

    Video
    ID : 4113 (0x1011)
    Menu ID : 1 (0x1)
    Format : AVC
    Format/Info : Advanced Video Codec
    Format profile : Main@L4.0
    Format settings, CABAC : Yes
    Format settings, ReFrames : 4 frames
    Format settings, GOP : M=3, N=24
    Codec ID : 27
    Duration : 3mn 55s
    Bit rate mode : Variable
    Bit rate : 13.0 Mbps
    Maximum bit rate : 20.0 Mbps
    Width : 1 920 pixels
    Height : 1 080 pixels
    Display aspect ratio : 16:9
    Frame rate : 29.970 fps
    Color space : YUV
    Chroma subsampling : 4:2:0
    Bit depth : 8 bits
    Scan type : Interlaced
    Scan order : Top Field First
    Bits/(Pixel*Frame) : 0.210
    Stream size : 366 MiB (92%)
    Color primaries : BT.709
    Transfer characteristics : BT.709
    Matrix coefficients : BT.709
    Color range : Limited

    Audio
    ID : 4352 (0x1100)
    Menu ID : 1 (0x1)
    Format : AC-3
    Format/Info : Audio Coding 3
    Mode extension : CM (complete main)
    Format settings, Endianness : Big
    Codec ID : 129
    Duration : 3mn 55s
    Bit rate mode : Constant
    Bit rate : 384 Kbps
    Channel(s) : 2 channels
    Channel positions : Front: L R
    Sampling rate : 48.0 KHz
    Bit depth : 16 bits
    Compression mode : Lossy
    Stream size : 10.8 MiB (3%)
    Language : English

    Download:
    Hidden Content:
    You must either reply or click 'Like' to see the hidden information contained here.

    Capped By Me :victory:
     
  2. rhea

    rhea Well-Known Member

    Joined:
    Jan 6, 2014
    Messages:
    7,307
    Likes Received:
    839
    thank you so much!
     
  3. Zatimi

    Zatimi Active Member

    Joined:
    Aug 27, 2014
    Messages:
    785
    Likes Received:
    159
    Thanks so much, i just love shania's music
     
  4. Hank

    Hank Member

    Joined:
    Nov 15, 2014
    Messages:
    260
    Likes Received:
    15
    Thank you for Shania!
     
  5. Dave0101

    Dave0101 Member

    Joined:
    Jan 17, 2015
    Messages:
    130
    Likes Received:
    2
    thanks alot for this
     
  6. adam dark

    adam dark Video Music Lover <3 V . I . P.

    Joined:
    Dec 5, 2013
    Messages:
    2,624
    Likes Received:
    5,117
    thank you so much I love this song!!! :victory:
     
  7. multimediafm

    multimediafm Well-Known Member Donor

    Joined:
    Mar 27, 2014
    Messages:
    11,530
    Likes Received:
    717
    Thanks :love:
    Shania Twain - From This Moment On (GACHD) 1080i H.264 DD2.0-HDMania
     
  8. dgnio

    dgnio Well-Known Member Capper Uploader

    Joined:
    Jul 7, 2014
    Messages:
    1,936
    Likes Received:
    560
    thnks very very much/!
     
  9. PLAYON4110

    PLAYON4110 New Member

    Joined:
    Jan 14, 2014
    Messages:
    17
    Likes Received:
    0
    LOve this song and video!
     
  10. okidokios

    okidokios Active Member Capper

    Joined:
    Apr 29, 2014
    Messages:
    26
    Likes Received:
    105
    Thank you is this caped from cable h264 format or is a reencode from mpeg2?
     
  11. tsm897

    tsm897 Member

    Joined:
    Apr 16, 2014
    Messages:
    143
    Likes Received:
    5
    thank you
     
  12. nolynexor88

    nolynexor88 Well-Known Member

    Joined:
    Sep 29, 2015
    Messages:
    1,282
    Likes Received:
    85
     
  13. Puchacz93

    Puchacz93 Well-Known Member

    Joined:
    Feb 4, 2015
    Messages:
    1,204
    Likes Received:
    743
    Thank you.
     
  14. nolynexor88

    nolynexor88 Well-Known Member

    Joined:
    Sep 29, 2015
    Messages:
    1,282
    Likes Received:
    85
     
  15. adsl2009

    adsl2009 New Member

    Joined:
    Dec 1, 2015
    Messages:
    11
    Likes Received:
    0
    thanks
     
  16. umisea

    umisea Member

    Joined:
    Mar 14, 2014
    Messages:
    113
    Likes Received:
    3
    Thanks a lot for sharing :love:
     
  17. blowyourmind

    blowyourmind ᴘᴏᴘ²

    Joined:
    May 20, 2016
    Messages:
    602
    Likes Received:
    592
    Wow thank you so much!
     
  18. slill

    slill Active Member

    Joined:
    Jul 25, 2014
    Messages:
    1,097
    Likes Received:
    16
    thanks
     
  19. viniciusdalcol

    viniciusdalcol Member

    Joined:
    Nov 26, 2015
    Messages:
    129
    Likes Received:
    7
  20. rikylouis14

    rikylouis14 Well-Known Member

    Joined:
    Jun 27, 2016
    Messages:
    774
    Likes Received:
    495