Shania Twain - From This Moment On (GACHD) 1080i H.264 DD2.0-HDMania

Discussion in 'GAC HD' started by RGF72K, Jul 13, 2015.

  1. RGF72K

    RGF72K ????? Staff Member Super Moderator

    Joined:
    Oct 1, 2013
    Messages:
    1,020
    Likes Received:
    13,854
    [​IMG]

    General
    ID : 1 (0x1)
    Complete name : Shania Twain - From This Moment On (GACHD) 1080i H.264 DD2.0-HDMania.ts
    Format : MPEG-TS
    File size : 397 MiB
    Duration : 3mn 55s
    Overall bit rate mode : Variable
    Overall bit rate : 14.1 Mbps

    Video
    ID : 4113 (0x1011)
    Menu ID : 1 (0x1)
    Format : AVC
    Format/Info : Advanced Video Codec
    Format profile : [email protected]
    Format settings, CABAC : Yes
    Format settings, ReFrames : 4 frames
    Format settings, GOP : M=3, N=24
    Codec ID : 27
    Duration : 3mn 55s
    Bit rate mode : Variable
    Bit rate : 13.0 Mbps
    Maximum bit rate : 20.0 Mbps
    Width : 1 920 pixels
    Height : 1 080 pixels
    Display aspect ratio : 16:9
    Frame rate : 29.970 fps
    Color space : YUV
    Chroma subsampling : 4:2:0
    Bit depth : 8 bits
    Scan type : Interlaced
    Scan order : Top Field First
    Bits/(Pixel*Frame) : 0.210
    Stream size : 366 MiB (92%)
    Color primaries : BT.709
    Transfer characteristics : BT.709
    Matrix coefficients : BT.709
    Color range : Limited

    Audio
    ID : 4352 (0x1100)
    Menu ID : 1 (0x1)
    Format : AC-3
    Format/Info : Audio Coding 3
    Mode extension : CM (complete main)
    Format settings, Endianness : Big
    Codec ID : 129
    Duration : 3mn 55s
    Bit rate mode : Constant
    Bit rate : 384 Kbps
    Channel(s) : 2 channels
    Channel positions : Front: L R
    Sampling rate : 48.0 KHz
    Bit depth : 16 bits
    Compression mode : Lossy
    Stream size : 10.8 MiB (3%)
    Language : English

    Download:
    Hidden Content:
    You must either reply or click 'Like' to see the hidden information contained here.

    Capped By Me :victory:
     
    angelm, rimisark, revilo18 and 8 others like this.
  2. rhea

    rhea Well-Known Member

    Joined:
    Jan 6, 2014
    Messages:
    5,193
    Likes Received:
    250
    thank you so much!
     
  3. Zatimi

    Zatimi Active Member

    Joined:
    Aug 27, 2014
    Messages:
    589
    Likes Received:
    57
    Thanks so much, i just love shania's music
     
  4. Hank

    Hank Member

    Joined:
    Nov 15, 2014
    Messages:
    156
    Likes Received:
    5
    Thank you for Shania!
     
  5. Dave0101

    Dave0101 Member

    Joined:
    Jan 17, 2015
    Messages:
    116
    Likes Received:
    1
    thanks alot for this
     
  6. adam dark

    adam dark Well-Known Member

    Joined:
    Dec 5, 2013
    Messages:
    2,369
    Likes Received:
    3,611
    thank you so much I love this song!!! :victory:
     
  7. multimediafm

    multimediafm Well-Known Member Donor

    Joined:
    Mar 27, 2014
    Messages:
    8,058
    Likes Received:
    320
    Thanks :love:
    Shania Twain - From This Moment On (GACHD) 1080i H.264 DD2.0-HDMania
     
  8. dgnio

    dgnio Well-Known Member

    Joined:
    Jul 7, 2014
    Messages:
    1,478
    Likes Received:
    284
    thnks very very much/!
     
  9. PLAYON4110

    PLAYON4110 New Member

    Joined:
    Jan 14, 2014
    Messages:
    11
    Likes Received:
    0
    LOve this song and video!
     
  10. okidokios

    okidokios Member Capper

    Joined:
    Apr 29, 2014
    Messages:
    16
    Likes Received:
    82
    Thank you is this caped from cable h264 format or is a reencode from mpeg2?
     
  11. tsm897

    tsm897 Member

    Joined:
    Apr 16, 2014
    Messages:
    129
    Likes Received:
    3
    thank you
     
  12. nolynexor88

    nolynexor88 Member

    Joined:
    Sep 29, 2015
    Messages:
    768
    Likes Received:
    23
     
  13. Puchacz93

    Puchacz93 Well-Known Member

    Joined:
    Feb 4, 2015
    Messages:
    1,204
    Likes Received:
    637
    Thank you.
     
  14. nolynexor88

    nolynexor88 Member

    Joined:
    Sep 29, 2015
    Messages:
    768
    Likes Received:
    23
     
  15. adsl2009

    adsl2009 New Member

    Joined:
    Dec 1, 2015
    Messages:
    11
    Likes Received:
    0
    thanks
     
  16. umisea

    umisea Member

    Joined:
    Mar 14, 2014
    Messages:
    88
    Likes Received:
    2
    Thanks a lot for sharing :love:
     
  17. blowyourmind

    blowyourmind

    Joined:
    May 20, 2016
    Messages:
    335
    Likes Received:
    176
    Wow thank you so much!
     
  18. slill

    slill Member

    Joined:
    Jul 25, 2014
    Messages:
    890
    Likes Received:
    7
    thanks
     
  19. viniciusdalcol

    viniciusdalcol New Member

    Joined:
    Nov 26, 2015
    Messages:
    28
    Likes Received:
    0