Shampoo - Trouble (Clean)

Discussion in 'SD' started by Rubn4, Jan 10, 2019.

  1. Rubn4

    Rubn4 Active Member

    Joined:
    Oct 30, 2016
    Messages:
    195
    Likes Received:
    29
    [​IMG]


    Code:
    General
    Complete name                  : D:\UltraStar Proyect\Variedad\Trouble.vob
    Format                         : MPEG-PS
    File size                      : 177 MiB
    Duration                       : 3mn 20s
    Overall bit rate mode          : Variable
    Overall bit rate               : 7 432 Kbps
    
    Video
    ID                             : 224 (0xE0)
    Format                         : MPEG Video
    Format version                 : Version 2
    Format profile                 : Main@Main
    Format settings, BVOP          : Yes
    Format settings, Matrix        : Default
    Duration                       : 3mn 20s
    Bit rate mode                  : Variable
    Bit rate                       : 7 028 Kbps
    Maximum bit rate               : 8 000 Kbps
    Width                          : 720 pixels
    Height                         : 576 pixels
    Display aspect ratio           : 4:3
    Frame rate                     : 25.000 fps
    Standard                       : PAL
    Color space                    : YUV
    Chroma subsampling             : 4:2:0
    Bit depth                      : 8 bits
    Scan type                      : Interlaced
    Scan order                     : Top Field First
    Compression mode               : Lossy
    Bits/(Pixel*Frame)             : 0.678
    Stream size                    : 168 MiB (95%)
    Color primaries                : BT.601 PAL
    Transfer characteristics       : BT.470 System B, BT.470 System G
    Matrix coefficients            : BT.601
    
    Audio
    ID                             : 189 (0xBD)-128 (0x80)
    Format                         : AC-3
    Format/Info                    : Audio Coding 3
    Mode extension                 : CM (complete main)
    Format settings, Endianness    : Big
    Muxing mode                    : DVD-Video
    Duration                       : 3mn 20s
    Bit rate mode                  : Constant
    Bit rate                       : 256 Kbps
    Channel(s)                     : 2 channels
    Channel positions              : Front: L R
    Sampling rate                  : 48.0 KHz
    Bit depth                      : 16 bits
    Compression mode               : Lossy
    Stream size                    : 6.11 MiB (3%)
    Hidden Content:
    You must reply before you can see the hidden data contained here.
     
  2. Loading...


  3. Jorge Barrionuevo

    Jorge Barrionuevo Well-Known Member

    Joined:
    Jun 9, 2015
    Messages:
    1,677
    Likes Received:
    717
    Muchas Gracias!