Shakira - Waka Waka (BridgeHD-1080i-MP2-Olgold)-HDMania

Discussion in 'Bridge HD' started by Olgold, Oct 12, 2016.

  1. Olgold

    Olgold Well-Known Member Capper

    Joined:
    Aug 19, 2015
    Messages:
    386
    Likes Received:
    1,303
    Shakira - Waka Waka
    [​IMG]
    General
    Format : MPEG-TS
    File size : 243 MiB
    Duration : 3 min 15 s
    Overall bit rate mode : Variable
    Overall bit rate : 10.3 Mb/s

    Video
    Format : AVC
    Format/Info : Advanced Video Codec
    Format profile : [email protected]
    Format settings, CABAC : Yes
    Format settings, ReFrames : 4 frames
    Duration : 3 min 14 s
    Bit rate : 9 573 kb/s
    Width : 1 920 pixels
    Height : 1 080 pixels
    Display aspect ratio : 16:9
    Frame rate : 25.000 FPS
    Standard : Component
    Color space : YUV
    Chroma subsampling : 4:2:0
    Bit depth : 8 bits
    Scan type : Interlaced
    Scan type, store method : Separated fields
    Scan order : Top Field First
    Bits/(Pixel*Frame) : 0.185
    Stream size : 222 MiB (91%)
    Color range : Limited

    Audio
    Format : MPEG Audio
    Format version : Version 1
    Format profile : Layer 2
    Duration : 3 min 15 s
    Bit rate mode : Constant
    Bit rate : 192 kb/s
    Channel(s) : 2 channels
    Sampling rate : 48.0 kHz
    Compression mode : Lossy
    Delay relative to video : -613 ms
    Stream size : 4.49 MiB (2%)
    Password: Olgold

    Hidden Content:
    You must reply before you can see the hidden data contained here.
     
  2. Loading...


  3. 777josem

    777josem Well-Known Member Uploader

    Joined:
    Sep 1, 2014
    Messages:
    2,347
    Likes Received:
    1,256
    Thank you so much!
     
  4. rhea

    rhea Well-Known Member

    Joined:
    Jan 6, 2014
    Messages:
    5,193
    Likes Received:
    250
    thank you so much
     
  5. meisam.sch

    meisam.sch Well-Known Member

    Joined:
    Jan 18, 2016
    Messages:
    1,051
    Likes Received:
    40
  6. Dreamer

    Dreamer ♫ It's Britney Bitch ♫ Capper Uploader

    Joined:
    Dec 4, 2014
    Messages:
    2,138
    Likes Received:
    1,806
    Thanks
     
  7. Hyrus

    Hyrus Arianator / Selenator / Victorian / LBS* Donor

    Joined:
    Feb 9, 2015
    Messages:
    1,061
    Likes Received:
    521
    Thanks a lot for Shaki!! :happy::)
     
  8. BinhTVT

    BinhTVT Member

    Joined:
    Jun 30, 2015
    Messages:
    175
    Likes Received:
    3
    thank u
     
  9. CELOBRAZiL

    CELOBRAZiL Well-Known Member Capper V . I . P. Donor

    Joined:
    Oct 2, 2013
    Messages:
    1,354
    Likes Received:
    3,530
    Thank you so much! :)
     
  10. stonecottage

    stonecottage Member

    Joined:
    Oct 24, 2016
    Messages:
    103
    Likes Received:
    14
    very like it
     
  11. yilder1

    yilder1 Active Member

    Joined:
    Aug 25, 2016
    Messages:
    235
    Likes Received:
    27
    thanks
     
  12. Praveen867

    Praveen867 Member

    Joined:
    Nov 14, 2016
    Messages:
    482
    Likes Received:
    2
    back UPS
     
  13. Nikkev

    Nikkev Member

    Joined:
    Feb 26, 2015
    Messages:
    131
    Likes Received:
    0
    thank you
     
  14. Jrec

    Jrec Member

    Joined:
    May 11, 2016
    Messages:
    584
    Likes Received:
    22
    Thanks
     
  15. video60fps

    video60fps Member

    Joined:
    Nov 3, 2016
    Messages:
    63
    Likes Received:
    0
    hello
     
  16. hanshermann

    hanshermann Active Member

    Joined:
    Aug 24, 2016
    Messages:
    1,273
    Likes Received:
    1
    wahts taht
     
  17. goku20

    goku20 New Member

    Joined:
    Dec 28, 2016
    Messages:
    17
    Likes Received:
    0
    thanks
     
  18. kapil17apr

    kapil17apr Member

    Joined:
    Nov 26, 2016
    Messages:
    79
    Likes Received:
    0
    Thanks
     
  19. sorb666

    sorb666 Member

    Joined:
    Dec 10, 2016
    Messages:
    49
    Likes Received:
    2
    hiiiiiiiiiiii
     
  20. tf135

    tf135 Well-Known Member

    Joined:
    Nov 14, 2014
    Messages:
    1,537
    Likes Received:
    87