Shakira - Objection (Tango) (VIVAHD-1080i-DD2.0-Djodjara)-HDMania

Discussion in 'VIVA HD' started by Djodjara, Sep 30, 2014.

  1. Djodjara

    Djodjara Gwen Fan Capper

    Joined:
    Sep 6, 2014
    Messages:
    631
    Likes Received:
    1,057
    Shakira - Objection (Tango) (VIVA HD 1080i - Djodjara)

    [​IMG]
    [​IMG]

    General:
    ID : 0 (0x0)
    Format : MPEG-TS
    File size : 239 MiB
    Duration : 3mn 46s
    Overall bit rate mode : Variable
    Overall bit rate : 8 876 Kbps

    Video:
    ID : 301 (0x12D)
    Menu ID : 1 (0x1)
    Format : AVC
    Format/Info : Advanced Video Codec
    Format profile : [email protected]
    Format settings, CABAC : Yes
    Format settings, ReFrames : 3 frames
    Codec ID : 27
    Duration : 3mn 46s
    Bit rate : 8 179 Kbps
    Width : 1 920 pixels
    Height : 1 080 pixels
    Display aspect ratio : 16:9
    Frame rate : 25.000 fps
    Color space : YUV
    Chroma subsampling : 4:2:0
    Bit depth : 8 bits
    Scan type : Interlaced
    Bits/(Pixel*Frame) : 0.158
    Stream size : 221 MiB (92%)
    Color primaries : BT.709
    Transfer characteristics : BT.709
    Matrix coefficients : BT.709

    Audio:
    ID : 302 (0x12E)
    Menu ID : 1 (0x1)
    Format : MPEG Audio
    Format version : Version 1
    Format profile : Layer 2
    Codec ID : 3
    Duration : 3mn 46s
    Bit rate mode : Constant
    Bit rate : 256 Kbps
    Channel count : 2 channels
    Sampling rate : 48.0 KHz
    Compression mode : Lossy
    Stream size : 6.90 MiB (3%)

    Hidden Content:
    You must reply before you can see the hidden data contained here.
     
  2. Loading...


  3. Alvena

    Alvena Member

    Joined:
    Mar 25, 2014
    Messages:
    175
    Likes Received:
    7
    thanks!!
     
  4. gianfranco

    gianfranco Member

    Joined:
    May 3, 2014
    Messages:
    39
    Likes Received:
    1
    Thank you!!
     
  5. Danilo Martins

    Danilo Martins Member Donor

    Joined:
    Apr 8, 2014
    Messages:
    89
    Likes Received:
    1
  6. Vjeans

    Vjeans Well-Known Member

    Joined:
    May 10, 2014
    Messages:
    853
    Likes Received:
    2,450
    Thanks!
     
  7. scorpion20

    scorpion20 Member

    Joined:
    Sep 19, 2014
    Messages:
    297
    Likes Received:
    13
  8. ytyh

    ytyh Member

    Joined:
    Mar 30, 2014
    Messages:
    432
    Likes Received:
    4
    Thank you so much
     
  9. ericbook

    ericbook Member

    Joined:
    Jan 3, 2014
    Messages:
    150
    Likes Received:
    1
    gracias
     
  10. dapape

    dapape Member

    Joined:
    Jun 9, 2014
    Messages:
    134
    Likes Received:
    1
    nice
     
  11. williamcaracas

    williamcaracas Member

    Joined:
    Nov 29, 2013
    Messages:
    147
    Likes Received:
    1
  12. aturner18

    aturner18 Active Member

    Joined:
    Oct 2, 2014
    Messages:
    846
    Likes Received:
    90
    i <3 this song
     
  13. MaggieS

    MaggieS Active Member

    Joined:
    Sep 19, 2014
    Messages:
    922
    Likes Received:
    33
    :):):):):)
     
  14. lifevirgin

    lifevirgin Active Member

    Joined:
    Feb 15, 2014
    Messages:
    362
    Likes Received:
    31
     
  15. lpplus

    lpplus Well-Known Member

    Joined:
    Sep 28, 2014
    Messages:
    423
    Likes Received:
    560
    Thanks
     
  16. braciata

    braciata Well-Known Member

    Joined:
    Oct 16, 2014
    Messages:
    377
    Likes Received:
    316
    thhhhx
     
  17. cevatsoyturk

    cevatsoyturk Member

    Joined:
    Oct 8, 2014
    Messages:
    201
    Likes Received:
    19
    thanks
     
  18. slill

    slill Member

    Joined:
    Jul 25, 2014
    Messages:
    890
    Likes Received:
    7
    thanks
     
  19. mizdot

    mizdot Active Member

    Joined:
    Nov 13, 2014
    Messages:
    1,143
    Likes Received:
    20
    tnx man
     
  20. 777josem

    777josem Well-Known Member Uploader

    Joined:
    Sep 1, 2014
    Messages:
    2,330
    Likes Received:
    1,250
    thanks!
     
  21. 777josem

    777josem Well-Known Member Uploader

    Joined:
    Sep 1, 2014
    Messages:
    2,330
    Likes Received:
    1,250
    thanks!