Shakira - Objection (Tango) (VIVAHD-1080i-DD2.0-Djodjara)-HDMania

Discussion in 'VIVA HD' started by Djodjara, Sep 30, 2014.

  1. Djodjara

    Djodjara Gwen Fan Capper

    Joined:
    Sep 6, 2014
    Messages:
    730
    Likes Received:
    1,201
    Shakira - Objection (Tango) (VIVA HD 1080i - Djodjara)

    [​IMG]
    [​IMG]

    General:
    ID : 0 (0x0)
    Format : MPEG-TS
    File size : 239 MiB
    Duration : 3mn 46s
    Overall bit rate mode : Variable
    Overall bit rate : 8 876 Kbps

    Video:
    ID : 301 (0x12D)
    Menu ID : 1 (0x1)
    Format : AVC
    Format/Info : Advanced Video Codec
    Format profile : [email protected]
    Format settings, CABAC : Yes
    Format settings, ReFrames : 3 frames
    Codec ID : 27
    Duration : 3mn 46s
    Bit rate : 8 179 Kbps
    Width : 1 920 pixels
    Height : 1 080 pixels
    Display aspect ratio : 16:9
    Frame rate : 25.000 fps
    Color space : YUV
    Chroma subsampling : 4:2:0
    Bit depth : 8 bits
    Scan type : Interlaced
    Bits/(Pixel*Frame) : 0.158
    Stream size : 221 MiB (92%)
    Color primaries : BT.709
    Transfer characteristics : BT.709
    Matrix coefficients : BT.709

    Audio:
    ID : 302 (0x12E)
    Menu ID : 1 (0x1)
    Format : MPEG Audio
    Format version : Version 1
    Format profile : Layer 2
    Codec ID : 3
    Duration : 3mn 46s
    Bit rate mode : Constant
    Bit rate : 256 Kbps
    Channel count : 2 channels
    Sampling rate : 48.0 KHz
    Compression mode : Lossy
    Stream size : 6.90 MiB (3%)

    Hidden Content:
    You must reply before you can see the hidden data contained here.
     
  2. Loading...


  3. Alvena

    Alvena Member

    Joined:
    Mar 25, 2014
    Messages:
    180
    Likes Received:
    7
    thanks!!
     
  4. gianfranco

    gianfranco Member

    Joined:
    May 3, 2014
    Messages:
    52
    Likes Received:
    1
    Thank you!!
     
  5. Danilo Martins

    Danilo Martins Member Donor

    Joined:
    Apr 8, 2014
    Messages:
    90
    Likes Received:
    1
  6. Vjeans

    Vjeans Well-Known Member

    Joined:
    May 10, 2014
    Messages:
    960
    Likes Received:
    3,023
    Thanks!
     
  7. scorpion20

    scorpion20 Member

    Joined:
    Sep 19, 2014
    Messages:
    331
    Likes Received:
    19
  8. ytyh

    ytyh Member

    Joined:
    Mar 30, 2014
    Messages:
    432
    Likes Received:
    4
    Thank you so much
     
  9. ericbook

    ericbook Member

    Joined:
    Jan 3, 2014
    Messages:
    202
    Likes Received:
    3
    gracias
     
  10. dapape

    dapape Member

    Joined:
    Jun 9, 2014
    Messages:
    134
    Likes Received:
    1
    nice
     
  11. williamcaracas

    williamcaracas Member

    Joined:
    Nov 29, 2013
    Messages:
    159
    Likes Received:
    2
  12. aturner18

    aturner18 Well-Known Member

    Joined:
    Oct 2, 2014
    Messages:
    1,020
    Likes Received:
    101
    i <3 this song
     
  13. MaggieS

    MaggieS Active Member

    Joined:
    Sep 19, 2014
    Messages:
    971
    Likes Received:
    39
    :):):):):)
     
  14. lifevirgin

    lifevirgin Active Member

    Joined:
    Feb 15, 2014
    Messages:
    365
    Likes Received:
    31
     
  15. lpplus

    lpplus LP & MET Fan

    Joined:
    Sep 28, 2014
    Messages:
    743
    Likes Received:
    2,191
    Thanks
     
  16. braciata

    braciata Well-Known Member

    Joined:
    Oct 16, 2014
    Messages:
    377
    Likes Received:
    486
    thhhhx
     
  17. cevatsoyturk

    cevatsoyturk Member

    Joined:
    Oct 8, 2014
    Messages:
    202
    Likes Received:
    20
    thanks
     
  18. slill

    slill Member

    Joined:
    Jul 25, 2014
    Messages:
    948
    Likes Received:
    13
    thanks
     
  19. mizdot

    mizdot Well-Known Member

    Joined:
    Nov 13, 2014
    Messages:
    1,247
    Likes Received:
    27
    tnx man
     
  20. 777josem

    777josem Well-Known Member V . I . P. Uploader

    Joined:
    Sep 1, 2014
    Messages:
    3,128
    Likes Received:
    1,730
    thanks!
     
  21. 777josem

    777josem Well-Known Member V . I . P. Uploader

    Joined:
    Sep 1, 2014
    Messages:
    3,128
    Likes Received:
    1,730
    thanks!