Shakira - Loca (VIVAHD-1080i-DD2.0-Djodjara)-HDMania

Discussion in 'VIVA HD' started by Djodjara, Jan 25, 2015.

  1. Djodjara

    Djodjara Gwen Fan Capper

    Joined:
    Sep 6, 2014
    Messages:
    659
    Likes Received:
    1,093
    Shakira - Loca (VIVA HD-1080i-Djodjara)-HDMania

    [​IMG]
    [​IMG]

    General:
    ID : 1 (0x1)
    Format : MPEG-TS
    File size : 205 MiB
    Duration : 3mn 9s
    Overall bit rate mode : Variable
    Overall bit rate : 9 049 Kbps

    Video:
    ID : 528 (0x210)
    Menu ID : 1 (0x1)
    Format : AVC
    Format/Info : Advanced Video Codec
    Format profile : [email protected]
    Format settings, CABAC : Yes
    Format settings, ReFrames : 3 frames
    Codec ID : 27
    Duration : 3mn 9s
    Bit rate : 8 149 Kbps
    Width : 1 920 pixels
    Height : 1 080 pixels
    Display aspect ratio : 16:9
    Frame rate : 25.000 fps
    Standard : Component
    Color space : YUV
    Chroma subsampling : 4:2:0
    Bit depth : 8 bits
    Scan type : Interlaced
    Bits/(Pixel*Frame) : 0.157
    Stream size : 184 MiB (90%)
    Color primaries : BT.709
    Transfer characteristics : BT.709
    Matrix coefficients : BT.709

    Audio #1:
    ID : 529 (0x211)
    Menu ID : 1 (0x1)
    Format : MPEG Audio
    Format version : Version 1
    Format profile : Layer 2
    Codec ID : 3
    Duration : 3mn 9s
    Bit rate mode : Constant
    Bit rate : 256 Kbps
    Channel count : 2 channels
    Sampling rate : 48.0 KHz
    Compression mode : Lossy
    Stream size : 5.80 MiB (3%)
    Language : German

    Audio #2:
    ID : 539 (0x21B)
    Menu ID : 1 (0x1)
    Format : AC-3
    Format/Info : Audio Coding 3
    Mode extension : HI (hearing impaired)
    Format settings, Endianness : Big
    Codec ID : 6
    Duration : 3mn 9s
    Bit rate mode : Constant
    Bit rate : 192 Kbps
    Channel count : 2 channels
    Channel positions : Front: L R
    Sampling rate : 48.0 KHz
    Bit depth : 16 bits
    Compression mode : Lossy
    Stream size : 4.35 MiB (2%)
    Language : German

    Hidden Content:
    You must reply before you can see the hidden data contained here.
     
    Vjeans, CELOBRAZiL, rhea and 2 others like this.
  2. Loading...


  3. 777josem

    777josem Well-Known Member Uploader

    Joined:
    Sep 1, 2014
    Messages:
    2,462
    Likes Received:
    1,338
    Thanks you! :)
     
  4. 777josem

    777josem Well-Known Member Uploader

    Joined:
    Sep 1, 2014
    Messages:
    2,462
    Likes Received:
    1,338
    Djodjara :victory: Hello, good morning! ... Among the top 5 shakira , there will be video:

    Whenever wherever or Suerte
    Objection or Te aviso, te anuncio
    :oops:
    The quality is very good! ... Me gusta mucho Shakira :love:
     
  5. Djodjara

    Djodjara Gwen Fan Capper

    Joined:
    Sep 6, 2014
    Messages:
    659
    Likes Received:
    1,093
    777josem likes this.
  6. 777josem

    777josem Well-Known Member Uploader

    Joined:
    Sep 1, 2014
    Messages:
    2,462
    Likes Received:
    1,338
    :D "Whenever, wherever" ... yeah! yeah!
     
  7. Crusha

    Crusha Well-Known Member Capper

    Joined:
    Oct 15, 2014
    Messages:
    2,350
    Likes Received:
    2,178
    thank you very much
     
  8. rhea

    rhea Well-Known Member

    Joined:
    Jan 6, 2014
    Messages:
    5,406
    Likes Received:
    265
    thank you so much :)
     
  9. indreams2011

    indreams2011 Member

    Joined:
    Dec 10, 2014
    Messages:
    663
    Likes Received:
    19
     
  10. Binh

    Binh Member

    Joined:
    Nov 18, 2013
    Messages:
    86
    Likes Received:
    1
    thank u
     
  11. amirdvb

    amirdvb Member

    Joined:
    Feb 1, 2015
    Messages:
    420
    Likes Received:
    9
    thankssssssssssssss man
     
  12. HDMjuzik

    HDMjuzik Member

    Joined:
    Feb 4, 2015
    Messages:
    59
    Likes Received:
    2
    thank you so so much :)))
     
  13. 777josem

    777josem Well-Known Member Uploader

    Joined:
    Sep 1, 2014
    Messages:
    2,462
    Likes Received:
    1,338
    "Whenever, wherever" Version VIVA HD :oops:
     
  14. Djodjara

    Djodjara Gwen Fan Capper

    Joined:
    Sep 6, 2014
    Messages:
    659
    Likes Received:
    1,093
    yes yes, sorry, i totally forgot, tonight i wil upload :(
     
    777josem likes this.
  15. 777josem

    777josem Well-Known Member Uploader

    Joined:
    Sep 1, 2014
    Messages:
    2,462
    Likes Received:
    1,338
    I know you must be very busy, all this is a great responsibility.

    Thank you so much Djodjara :happy:
     
  16. Thassyo

    Thassyo Well-Known Member

    Joined:
    Oct 9, 2013
    Messages:
    1,977
    Likes Received:
    660
    thank you
     
  17. slill

    slill Member

    Joined:
    Jul 25, 2014
    Messages:
    929
    Likes Received:
    10
    thanks
     
  18. Vjeans

    Vjeans Well-Known Member

    Joined:
    May 10, 2014
    Messages:
    900
    Likes Received:
    2,700
    Thank you!Beautiful Shakira!
     
  19. Hyrus

    Hyrus Arianator / Selenator / Victorian / LBS* Donor

    Joined:
    Feb 9, 2015
    Messages:
    1,109
    Likes Received:
    643
    Thanks a lot. This video is awesome:victory:
     
  20. ytyh

    ytyh Member

    Joined:
    Mar 30, 2014
    Messages:
    432
    Likes Received:
    4
    thank you
     
  21. thibault

    thibault New Member

    Joined:
    May 23, 2015
    Messages:
    12
    Likes Received:
    0