BDRiP Shakira - Live From Paris 2011 BDRip 1080p DTS5.1

Discussion in 'BLU-RAY' started by tknobi, Dec 7, 2016.

  1. tknobi

    tknobi Well-Known Member

    Joined:
    Feb 22, 2014
    Messages:
    675
    Likes Received:
    1,613
    [​IMG]
    [​IMG]
    Tracklist
    :

    01. Pienso en Ti
    02. Why Wait
    03. Te Dejo Madrid
    04. Si Te Vas
    05. Whenever Wherever
    06. Inevitable
    07. Nothing Else Matters
    08. Despedida
    09. Gypsy
    10. Tortura
    11. Ciega Sordomuda
    12. Underneath Your Clothes
    13. Gordita
    14. Sale el Sol
    15. Las de la Intuicion
    16. Loca
    17. She Wolf
    18. Ojos Asi
    19. Antes de las Seis
    20. Je L'Aime a Mourir
    21. Hips Don't Lie
    22. Waka Waka


    Quality : BDRip 1080p
    Container : MKV
    Video : 1920x1080, 8 bits, 29.970 fps, 9 876 Kbps, AVC
    Audio : 6 ch, 24 bits, 48.0 KHz, 1 509 Kbps, DTS

    HTML:
    Format                                   : Matroska
    Format version                           : Version 2
    File size                                : 7.95 GiB
    Duration                                 : 1h 39mn
    Overall bit rate                         : 11.4 Mbps
    Encoded date                             : UTC 2011-12-06 18:39:08
    Writing application                      : mkvmerge v4.4.0 ('Die Wiederkehr') gemaakt op Oct 31 2010 21:52:48
    Writing library                          : libebml v1.0.0 + libmatroska v1.0.0
    
    Video
    ID                                       : 1
    Format                                   : AVC
    Format/Info                              : Advanced Video Codec
    Format profile                           : High@L4.1
    Format settings, CABAC                   : Yes
    Format settings, ReFrames                : 4 frames
    Muxing mode                              : Header stripping
    Codec ID                                 : V_MPEG4/ISO/AVC
    Duration                                 : 1h 39mn
    Bit rate                                 : 9 876 Kbps
    Width                                    : 1 920 pixels
    Height                                   : 1 080 pixels
    Display aspect ratio                     : 16:9
    Frame rate mode                          : Constant
    Frame rate                               : 29.970 (29970/1000) fps
    Color space                              : YUV
    Chroma subsampling                       : 4:2:0
    Bit depth                                : 8 bits
    Scan type                                : Progressive
    Bits/(Pixel*Frame)                       : 0.159
    Stream size                              : 6.73 GiB (85%)
    Writing library                          : x264 core 119 r2106 07efeb4
    Encoding settings                        : cabac=1 / ref=4 / deblock=1:0:0 / analyse=0x3:0x133 / me=umh / subme=7 / psy=1 / psy_rd=1.00:0.00 / mixed_ref=1 / me_range=16 / chroma_me=1 / trellis=1 / 8x8dct=1 / cqm=0 / deadzone=21,11 / fast_pskip=1 / chroma_qp_offset=-2 / threads=6 / sliced_threads=0 / nr=0 / decimate=1 / interlaced=0 / bluray_compat=0 / constrained_intra=0 / bframes=3 / b_pyramid=2 / b_adapt=2 / b_bias=0 / direct=3 / weightb=1 / open_gop=0 / weightp=2 / keyint=250 / keyint_min=25 / scenecut=40 / intra_refresh=0 / rc=2pass / mbtree=0 / bitrate=9876 / ratetol=1.0 / qcomp=0.60 / qpmin=0 / qpmax=69 / qpstep=4 / cplxblur=20.0 / qblur=0.5 / ip_ratio=1.40 / pb_ratio=1.30 / aq=1:1.00
    Language                                 : English
    Default                                  : Yes
    Forced                                   : No
    
    Audio
    ID                                       : 2
    Format                                   : DTS
    Format/Info                              : Digital Theater Systems
    Mode                                     : 16
    Format settings, Endianness              : Big
    Muxing mode                              : Header stripping
    Codec ID                                 : A_DTS
    Duration                                 : 1h 39mn
    Bit rate mode                            : Constant
    Bit rate                                 : 1 509 Kbps
    Channel(s)                               : 6 channels
    Channel positions                        : Front: L C R, Side: L R, LFE
    Sampling rate                            : 48.0 KHz
    Frame rate                               : 93.750 fps (512 spf)
    Bit depth                                : 24 bits
    Compression mode                         : Lossy
    Delay relative to video                  : 1s 101ms
    Stream size                              : 1.05 GiB (13%)
    Default                                  : Yes
    Forced                                   : No

    All Credit To The Original Capper

    MEGA
    Hidden Content:
    You must reply before you can see the hidden data contained here.
     
    Last edited: Jun 1, 2018
    mandrake, sibe22, Tofik007 and 7 others like this.
  2. Loading...


  3. yoereyesr21

    yoereyesr21 Active Member

    Joined:
    Mar 12, 2016
    Messages:
    296
    Likes Received:
    41
  4. mf60232000

    mf60232000 Member

    Joined:
    Dec 29, 2013
    Messages:
    194
    Likes Received:
    12
    thanks alot
     
  5. luismolinanyc

    luismolinanyc Active Member

    Joined:
    May 17, 2016
    Messages:
    943
    Likes Received:
    35
    omggggggggg
     
  6. FLOREN

    FLOREN New Member

    Joined:
    Dec 11, 2015
    Messages:
    16
    Likes Received:
    1
    Gracias
     
  7. FLOREN

    FLOREN New Member

    Joined:
    Dec 11, 2015
    Messages:
    16
    Likes Received:
    1
    Gracias
     
  8. FLOREN

    FLOREN New Member

    Joined:
    Dec 11, 2015
    Messages:
    16
    Likes Received:
    1
    Gracias
     
  9. FLOREN

    FLOREN New Member

    Joined:
    Dec 11, 2015
    Messages:
    16
    Likes Received:
    1
    Gracias
     
  10. jose luis

    jose luis Member

    Joined:
    Nov 25, 2013
    Messages:
    380
    Likes Received:
    20
    thanks !
     
  11. arasu123

    arasu123 Member

    Joined:
    Aug 8, 2016
    Messages:
    454
    Likes Received:
    17
    dasdas
    Tracklist :

    01. Pienso en Ti
    02. Why Wait
    03. Te Dejo Madrid
    04. Si Te Vas
    05. Whenever Wherever
    06. Inevitable
    07. Nothing Else Matters
    08. Despedida
    09. Gypsy
    10. Tortura
    11. Ciega Sordomuda
    12. Underneath Your Clothes
    13. Gordita
    14. Sale el Sol
    15. Las de la Intuicion
    16. Loca
    17. She Wolf
    18. Ojos Asi
    19. Antes de las Seis
    20. Je L'Aime a Mourir
    21. Hips Don't Lie
    22. Waka Waka


    Quality : BDRip 1080p
    Container : MKV
    Video : 1920x1080, 8 bits, 29.970 fps, 9 876 Kbps, AVC
    Audio : 6 ch, 24 bits, 48.0 KHz, 1 509 Kbps, DTS

    HTML:
    Format                                   : Matroska
    Format version                           : Version 2
    File size                                : 7.95 GiB
    Duration                                 : 1h 39mn
    Overall bit rate                         : 11.4 Mbps
    Encoded date                             : UTC 2011-12-06 18:39:08
    Writing application                      : mkvmerge v4.4.0 ('Die Wiederkehr') gemaakt op Oct 31 2010 21:52:48
    Writing library                          : libebml v1.0.0 + libmatroska v1.0.0
    
    Video
    ID                                       : 1
    Format                                   : AVC
    Format/Info                              : Advanced Video Codec
    Format profile                           : High@L4.1
    Format settings, CABAC                   : Yes
    Format settings, ReFrames                : 4 frames
    Muxing mode                              : Header stripping
    Codec ID                                 : V_MPEG4/ISO/AVC
    Duration                                 : 1h 39mn
    Bit rate                                 : 9 876 Kbps
    Width                                    : 1 920 pixels
    Height                                   : 1 080 pixels
    Display aspect ratio                     : 16:9
    Frame rate mode                          : Constant
    Frame rate                               : 29.970 (29970/1000) fps
    Color space                              : YUV
    Chroma subsampling                       : 4:2:0
    Bit depth                                : 8 bits
    Scan type                                : Progressive
    Bits/(Pixel*Frame)                       : 0.159
    Stream size                              : 6.73 GiB (85%)
    Writing library                          : x264 core 119 r2106 07efeb4
    Encoding settings                        : cabac=1 / ref=4 / deblock=1:0:0 / analyse=0x3:0x133 / me=umh / subme=7 / psy=1 / psy_rd=1.00:0.00 / mixed_ref=1 / me_range=16 / chroma_me=1 / trellis=1 / 8x8dct=1 / cqm=0 / deadzone=21,11 / fast_pskip=1 / chroma_qp_offset=-2 / threads=6 / sliced_threads=0 / nr=0 / decimate=1 / interlaced=0 / bluray_compat=0 / constrained_intra=0 / bframes=3 / b_pyramid=2 / b_adapt=2 / b_bias=0 / direct=3 / weightb=1 / open_gop=0 / weightp=2 / keyint=250 / keyint_min=25 / scenecut=40 / intra_refresh=0 / rc=2pass / mbtree=0 / bitrate=9876 / ratetol=1.0 / qcomp=0.60 / qpmin=0 / qpmax=69 / qpstep=4 / cplxblur=20.0 / qblur=0.5 / ip_ratio=1.40 / pb_ratio=1.30 / aq=1:1.00
    Language                                 : English
    Default                                  : Yes
    Forced                                   : No
    
    Audio
    ID                                       : 2
    Format                                   : DTS
    Format/Info                              : Digital Theater Systems
    Mode                                     : 16
    Format settings, Endianness              : Big
    Muxing mode                              : Header stripping
    Codec ID                                 : A_DTS
    Duration                                 : 1h 39mn
    Bit rate mode                            : Constant
    Bit rate                                 : 1 509 Kbps
    Channel(s)                               : 6 channels
    Channel positions                        : Front: L C R, Side: L R, LFE
    Sampling rate                            : 48.0 KHz
    Frame rate                               : 93.750 fps (512 spf)
    Bit depth                                : 24 bits
    Compression mode                         : Lossy
    Delay relative to video                  : 1s 101ms
    Stream size                              : 1.05 GiB (13%)
    Default                                  : Yes
    Forced                                   : No

    All Credit To The Original Capper

    MEGA
    ***Hidden content cannot be quoted.***
    [/QUOTE]
     
    FLORENS and tatygotiko like this.
  12. renan_rdgs

    renan_rdgs Member

    Joined:
    Dec 1, 2016
    Messages:
    100
    Likes Received:
    7
    Obrigado
     
  13. BNJFEV

    BNJFEV Member

    Joined:
    Dec 14, 2013
    Messages:
    360
    Likes Received:
    8
    thanks so much
     
  14. jonatasfreitas

    jonatasfreitas Member

    Joined:
    Sep 6, 2016
    Messages:
    135
    Likes Received:
    5
  15. XtrunksX

    XtrunksX Member

    Joined:
    Jul 25, 2016
    Messages:
    210
    Likes Received:
    4
    Thank You!
     
  16. glukino

    glukino New Member

    Joined:
    Jan 1, 2017
    Messages:
    22
    Likes Received:
    1
    thanks a lot
     
  17. juliolalaland

    juliolalaland Member

    Joined:
    Dec 25, 2016
    Messages:
    323
    Likes Received:
    17
  18. tatygotiko

    tatygotiko New Member

    Joined:
    Jan 11, 2017
    Messages:
    14
    Likes Received:
    1
    thank you so much
    I love Shakira
     
  19. jloveres

    jloveres Active Member

    Joined:
    Jun 14, 2015
    Messages:
    705
    Likes Received:
    205
  20. D3mon86

    D3mon86 Member

    Joined:
    Dec 19, 2016
    Messages:
    850
    Likes Received:
    14
    thanks
     
  21. orgulo

    orgulo Active Member

    Joined:
    Jan 16, 2017
    Messages:
    958
    Likes Received:
    46
    thanks