Shakira - Hips Don't Lie (VH1HD-1080i-DD2.0-Crusha)

Discussion in 'VH1 HD' started by Crusha, Mar 12, 2016.

  1. Crusha

    Crusha Well-Known Member Capper

    Joined:
    Oct 15, 2014
    Messages:
    2,349
    Likes Received:
    2,063
    [​IMG] [​IMG] [​IMG] [​IMG]

    Mediainfo
    General
    ID : 1 (0x1)
    Complete name : Shakira - Hips Don't Lie (VH1.HD.1080i.DD2.0).-Crusha.ts
    Format : MPEG-TS
    File size : 96.3 MiB
    Duration : 3mn 37s
    Overall bit rate mode : Variable
    Overall bit rate : 3 706 Kbps

    Video
    ID : 2943 (0xB7F)
    Menu ID : 1515 (0x5EB)
    Format : AVC
    Format/Info : Advanced Video Codec
    Format profile : [email protected]
    Format settings, CABAC : Yes
    Format settings, ReFrames : 4 frames
    Codec ID : 27
    Duration : 3mn 37s
    Bit rate : 3 135 Kbps
    Width : 1 920 pixels
    Height : 1 080 pixels
    Display aspect ratio : 16:9
    Frame rate : 29.970 fps
    Standard : Component
    Color space : YUV
    Chroma subsampling : 4:2:0
    Bit depth : 8 bits
    Scan type : MBAFF
    Scan order : Top Field First
    Bits/(Pixel*Frame) : 0.050
    Stream size : 81.5 MiB (85%)
    Color range : Limited
    Color primaries : BT.709
    Transfer characteristics : BT.709
    Matrix coefficients : BT.709

    Audio
    ID : 3909 (0xF45)
    Menu ID : 1515 (0x5EB)
    Format : AC-3
    Format/Info : Audio Coding 3
    Mode extension : CM (complete main)
    Format settings, Endianness : Big
    Codec ID : 6
    Duration : 3mn 37s
    Bit rate mode : Constant
    Bit rate : 384 Kbps
    Channel(s) : 2 channels
    Channel positions : Front: L R
    Sampling rate : 48.0 KHz
    Bit depth : 16 bits
    Compression mode : Lossy
    Stream size : 9.98 MiB (10%)
    Language : English
    Hidden Content:
    You must reply before you can see the hidden data contained here.
    Password:
    crusha
     
    jose luis and mamadjb like this.
  2. Loading...


  3. NicoleScherzy

    NicoleScherzy Well-Known Member

    Joined:
    May 14, 2015
    Messages:
    829
    Likes Received:
    284
    Thank you so muchhhh
     
  4. Snorom6

    Snorom6 Well-Known Member Uploader

    Joined:
    Dec 17, 2015
    Messages:
    4,246
    Likes Received:
    3,261
  5. Colby

    Colby Member

    Joined:
    Oct 31, 2015
    Messages:
    118
    Likes Received:
    1
    thanks
     
  6. Verdel123

    Verdel123 New Member

    Joined:
    May 2, 2016
    Messages:
    4
    Likes Received:
    0
    New User
     
  7. Spartan

    Spartan Member

    Joined:
    Dec 8, 2015
    Messages:
    30
    Likes Received:
    4
    thanks
     
  8. mahsa

    mahsa Member

    Joined:
    Mar 10, 2016
    Messages:
    243
    Likes Received:
    8
    خوبه عالییی
     
  9. Chris Sooz

    Chris Sooz Member

    Joined:
    Jan 13, 2016
    Messages:
    187
    Likes Received:
    3
  10. Jorge Barrionuevo

    Jorge Barrionuevo Active Member

    Joined:
    Jun 9, 2015
    Messages:
    702
    Likes Received:
    193
    GRACIAS!
     
  11. mamadjb

    mamadjb Active Member

    Joined:
    Dec 4, 2015
    Messages:
    158
    Likes Received:
    59
    GRACIAS
     
  12. girishbabuj3

    girishbabuj3 Member

    Joined:
    Aug 5, 2016
    Messages:
    30
    Likes Received:
    0
  13. Jrec

    Jrec Member

    Joined:
    May 11, 2016
    Messages:
    576
    Likes Received:
    22
    thanks
     
  14. couillerot

    couillerot Member

    Joined:
    Sep 7, 2016
    Messages:
    77
    Likes Received:
    2
  15. jose luis

    jose luis Member

    Joined:
    Nov 25, 2013
    Messages:
    167
    Likes Received:
    6
    thanks !
     
  16. Shakifanny

    Shakifanny New Member

    Joined:
    Dec 8, 2016
    Messages:
    5
    Likes Received:
    0
    Thankss
     
  17. kassiu wehmuth

    kassiu wehmuth Member

    Joined:
    Jun 7, 2015
    Messages:
    157
    Likes Received:
    8
  18. Markii71

    Markii71 New Member

    Joined:
    Dec 7, 2016
    Messages:
    9
    Likes Received:
    0
    thank you
     
  19. arenanssantos

    arenanssantos New Member

    Joined:
    Dec 26, 2016
    Messages:
    20
    Likes Received:
    3
    AAAAAAAAA *O*
     
  20. goku20

    goku20 New Member

    Joined:
    Dec 28, 2016
    Messages:
    17
    Likes Received:
    0
    Thanks
     
  21. D3mon86

    D3mon86 Member

    Joined:
    Dec 19, 2016
    Messages:
    295
    Likes Received:
    0
    thank you :D