HDTV Shakira - Hips Dont Lie (Live on Dancing With The Stars 13.10.2009) (Unaired Version) HDTV 720p

Discussion in 'HD Live Performances' started by hanshermann, Dec 4, 2017.

  1. hanshermann

    hanshermann Well-Known Member Uploader

    Joined:
    Aug 24, 2016
    Messages:
    5,037
    Likes Received:
    3,799
    [​IMG]

    Shakira - Hips Dont Lie (Live on Dancing With The Stars 13.10.2009) (Unaired Version) HDTV 720p

    Code:
    General
    ID                          : 1 (0x1)
    Complete name               : Shakira - Hips Dont Lie (Live on Dancing With The Stars 13.10.2009) (Unaired Version) HDTV 720p.ts
    Format                      : MPEG-TS
    File size                   : 1.65 GiB
    Duration                    : 5 min 39 s
    Overall bit rate mode       : Variable
    Overall bit rate            : 41.6 Mb/s
    Maximum Overall bit rate    : 35.5 Mb/s
    
    Video
    ID                          : 4113 (0x1011)
    Menu ID                     : 1 (0x1)
    Format                      : MPEG Video
    Format version              : Version 2
    Format profile              : [email protected]
    Format settings, BVOP       : No
    Format settings, Matrix     : Custom
    Format settings, GOP        : N=24
    Codec ID                    : 2
    Duration                    : 5 min 39 s
    Bit rate mode               : Constant
    Bit rate                    : 39.3 Mb/s
    Maximum bit rate            : 40.5 Mb/s
    Width                       : 1 280 pixels
    Height                      : 720 pixels
    Display aspect ratio        : 16:9
    Frame rate                  : 59.940 (60000/1001) FPS
    Standard                    : Component
    Color space                 : YUV
    Chroma subsampling          : 4:2:0
    Bit depth                   : 8 bits
    Scan type                   : Progressive
    Compression mode            : Lossy
    Bits/(Pixel*Frame)          : 0.711
    Time code of first frame    : 05:00:29:36
    Time code source            : Group of pictures header
    GOP, Open/Closed            : Open
    Stream size                 : 1.55 GiB (94%)
    Color primaries             : BT.709
    Transfer characteristics    : BT.709
    Matrix coefficients         : BT.709
    
    Audio
    ID                          : 4352 (0x1100)
    Menu ID                     : 1 (0x1)
    Format                      : MPEG Audio
    Format version              : Version 1
    Format profile              : Layer 2
    Mode                        : Joint stereo
    Codec ID                    : 4
    Duration                    : 5 min 39 s
    Bit rate mode               : Constant
    Bit rate                    : 256 kb/s
    Channel(s)                  : 2 channels
    Sampling rate               : 48.0 kHz
    Compression mode            : Lossy
    Delay relative to video     : 14 ms
    Stream size                 : 10.4 MiB (1%)
    Language                    : English
    
    Hidden Content:
    You must either reply or click 'Like' to see the hidden information contained here.
     
    Tiago, hdlogic, Biszczan and 8 others like this.
  2. Loading...


  3. Pedro Correia

    Pedro Correia Well-Known Member

    Joined:
    Apr 17, 2014
    Messages:
    1,023
    Likes Received:
    109
    Muchas gracias!
     
  4. ben_richards

    ben_richards Active Member

    Joined:
    Feb 2, 2016
    Messages:
    320
    Likes Received:
    37
  5. tf135

    tf135 Well-Known Member

    Joined:
    Nov 14, 2014
    Messages:
    2,498
    Likes Received:
    163
    thanks
     
  6. mcslimshady

    mcslimshady Well-Known Member

    Joined:
    Jun 20, 2016
    Messages:
    1,274
    Likes Received:
    34
  7. Janosch

    Janosch Member

    Joined:
    Aug 2, 2017
    Messages:
    186
    Likes Received:
    0
    THANKS
     
  8. kocheko

    kocheko New Member

    Joined:
    Dec 4, 2017
    Messages:
    27
    Likes Received:
    1
    wow thanks!
     
  9. kiiwii

    kiiwii Member

    Joined:
    Oct 10, 2013
    Messages:
    278
    Likes Received:
    9
    Thanks
     
  10. Tommyboy

    Tommyboy Active Member

    Joined:
    Oct 23, 2016
    Messages:
    712
    Likes Received:
    28
    G.Tanks
     
  11. orgulo

    orgulo Active Member

    Joined:
    Jan 16, 2017
    Messages:
    851
    Likes Received:
    38
    thanks
     
  12. frisby

    frisby Well-Known Member

    Joined:
    Nov 21, 2015
    Messages:
    1,135
    Likes Received:
    118
    thank you
     
  13. jloveres

    jloveres Active Member

    Joined:
    Jun 14, 2015
    Messages:
    515
    Likes Received:
    101
    Thanks
     
  14. Daniele

    Daniele Active Member

    Joined:
    Nov 16, 2013
    Messages:
    174
    Likes Received:
    40
    Thanks
     
  15. multimediafm

    multimediafm Well-Known Member Donor

    Joined:
    Mar 27, 2014
    Messages:
    10,639
    Likes Received:
    633
  16. mizdot

    mizdot Well-Known Member

    Joined:
    Nov 13, 2014
    Messages:
    1,840
    Likes Received:
    53
    tnx man
     
  17. cegs9

    cegs9 Member

    Joined:
    Mar 2, 2016
    Messages:
    302
    Likes Received:
    16
    thanks
     
  18. Chris

    Chris Member

    Joined:
    Oct 19, 2013
    Messages:
    678
    Likes Received:
    21
    Thank you
     
  19. thiagodema

    thiagodema Well-Known Member

    Joined:
    Jan 19, 2014
    Messages:
    742
    Likes Received:
    398
    thanks for joob
     
  20. spkrishan

    spkrishan Member

    Joined:
    Jan 11, 2016
    Messages:
    48
    Likes Received:
    3
    thanks ....
     
  21. stp52x

    stp52x Member

    Joined:
    Aug 2, 2015
    Messages:
    68
    Likes Received:
    5
    thanks