BDRiP Shakira - Fijación Oral Tour / Oral Fixation Tour 2007 (Live @ Miami) DTS.BDRip 1080p

Discussion in 'BLU-RAY' started by tknobi, Nov 18, 2016.

  1. tknobi

    tknobi Well-Known Member

    Joined:
    Feb 22, 2014
    Messages:
    675
    Likes Received:
    1,613
    [​IMG]


    Tracklist :

    1. Intro
    2. Estoy Aqui
    3. Te Dejo Madrid
    4. Don't Bother
    5. Antologia
    6. Hey You
    7. Inevitable
    8. Si Te Vas
    9. La Tortura (featuring Alejandro Sanz)
    10. NO
    11. Whenever, Wherever
    12. La Pared
    13. Underneath Your Clothes
    14. Pies Descalzos
    15. Ciega, Sordomuda
    16. Ojos Asi
    17. Hips Don't Lie (featuring Wyclef Jean)


    Quality : BDRip 1080p
    Container : MKV
    Video : 1920x1088, 8 bits, 23.976 fps, 10.7 Mbps, AVC
    Audio : 6 ch, 24 bits, 48.0 KHz, 1 510 Kbps, DTS
    HTML:
    Format                                   : Matroska[/COLOR][/FONT][/B][/CENTER][/COLOR][/FONT][/B][/CENTER]
    [B][FONT=Trebuchet MS][COLOR=#a64dff]
    [CENTER][B][FONT=Trebuchet MS][COLOR=#a64dff]
    [CENTER]Format version                           : Version 1
    File size                                : 7.95 GiB
    Duration                                 : 1h 32mn
    Overall bit rate                         : 12.2 Mbps
    Encoded date                             : UTC 2007-12-27 14:08:09
    Writing application                      : mkvmerge v2.1.0 ('Another Place To Fall') built on Aug 19 2007 13:40:07
    Writing library                          : libebml v0.7.7 + libmatroska v0.8.1
    
    Video
    ID                                       : 1
    Format                                   : AVC
    Format/Info                              : Advanced Video Codec
    Format profile                           : High@L5.1
    Format settings, CABAC                   : Yes
    Format settings, ReFrames                : 8 frames
    Codec ID                                 : V_MPEG4/ISO/AVC
    Duration                                 : 1h 32mn
    Bit rate                                 : 10.7 Mbps
    Width                                    : 1 920 pixels
    Height                                   : 1 088 pixels
    Display aspect ratio                     : 16:9
    Frame rate mode                          : Constant
    Frame rate                               : 23.976 fps
    Color space                              : YUV
    Chroma subsampling                       : 4:2:0
    Bit depth                                : 8 bits
    Scan type                                : Progressive
    Bits/(Pixel*Frame)                       : 0.214
    Stream size                              : 6.81 GiB (86%)
    Title                                    : x264 - 2 passes
    Writing library                          : x264 core 57 svn-709C
    Encoding settings                        : cabac=1 / ref=5 / deblock=1:0:0 / analyse=0x3:0x133 / me=umh / fpel_cmp=sad / subme=7 / me-prepass=0 / brdo=1 / mixed_ref=1 / me_range=16 / chroma_me=1 / trellis=0 / 8x8dct=1 / cqm=0 / deadzone=8,4 / chroma_qp_offset=0 / threads=6 / nr=0 / decimate=0 / mbaff=0 / bframes=3 / b_pyramid=1 / b_adapt=1 / b_bias=0 / direct=3 / wpredb=1 / bime=1 / keyint=250 / keyint_min=25 / scenecut=40(pre) / rc=2pass / bitrate=10727 / ratetol=1.0 / rceq='blurCplx^(1-qComp)' / qcomp=0.60 / qpmin=10 / qpmax=51 / qpstep=4 / cplxblur=20.0 / qblur=0.5 / ip_ratio=1.40 / pb_ratio=1.30 / aq=1:0.5:12.0
    Language                                 : Spanish
    Default                                  : Yes
    Forced                                   : No
    
    Audio
    ID                                       : 2
    Format                                   : DTS
    Format/Info                              : Digital Theater Systems
    Mode                                     : 16
    Format settings, Endianness              : Big
    Codec ID                                 : A_DTS
    Duration                                 : 1h 32mn
    Bit rate mode                            : Constant
    Bit rate                                 : 1 510 Kbps
    Channel(s)                               : 6 channels
    Channel positions                        : Front: L C R, Side: L R, LFE
    Sampling rate                            : 48.0 KHz
    Frame rate                               : 93.750 fps (512 spf)
    Bit depth                                : 24 bits
    Compression mode                         : Lossy
    Stream size                              : 1 004 MiB (12%)
    Title                                    : DTS 1536 kbit/sec
    Language                                 : Spanish
    Default                                  : Yes
    Forced                                   : No
    
    Text
    ID                                       : 3
    Format                                   : UTF-8
    Codec ID                                 : S_TEXT/UTF8
    Codec ID/Info                            : UTF-8 Plain Text
    Title                                    : Titles
    Language                                 : Spanish
    Default                                  : Yes
    Forced                                   : No
    
    Menu
    00:00:00.000                             : es:Intro
    00:02:04.000                             : es:Estoy Aqui
    00:06:33.000                             : es:Te Dejo Madrid
    00:09:40.000                             : es:Don't Bother
    00:15:03.000                             : es:Antologia
    00:19:11.000                             : es:Hey You
    00:23:50.000                             : es:Inevitable
    00:27:30.000                             : es:Si Te Vas
    00:32:34.000                             : es:La Tortura (featuring Alejandro Sanz)
    00:36:38.000                             : es:NO
    00:43:09.000                             : es:Whenever, Wherever
    00:58:57.000                             : es:La Pared
    01:02:46.000                             : es:Underneath Your Clothes
    01:06:43.000                             : es:Pies Descalzos
    01:09:54.000                             : es:Ciega, Sordomuda
    01:15:30.000                             : es:Ojos Asi
    01:22:40.000                             : es:Hips Don't Lie (featuring Wyclef Jean)



    All Credit To The Original Capper

    MEGA
    Hidden Content:
    You must reply before you can see the hidden data contained here.
     
    Last edited: Jun 1, 2018
  2. Loading...


  3. dersullana

    dersullana Well-Known Member

    Joined:
    Dec 21, 2015
    Messages:
    1,045
    Likes Received:
    53
  4. ImLoser

    ImLoser Well-Known Member

    Joined:
    May 12, 2016
    Messages:
    2,036
    Likes Received:
    90
    thanks
     
  5. theclimb

    theclimb Well-Known Member

    Joined:
    Dec 16, 2014
    Messages:
    1,240
    Likes Received:
    184
    Thanks
     
  6. hanshermann

    hanshermann Well-Known Member Uploader

    Joined:
    Aug 24, 2016
    Messages:
    6,596
    Likes Received:
    10,417
    wahts taht
     
  7. lim

    lim Well-Known Member

    Joined:
    Nov 8, 2013
    Messages:
    2,032
    Likes Received:
    76
    thank you
     
  8. seejeey

    seejeey New Member

    Joined:
    Nov 18, 2016
    Messages:
    8
    Likes Received:
    1
    thank you so much
     
  9. mahsa

    mahsa Member

    Joined:
    Mar 10, 2016
    Messages:
    295
    Likes Received:
    8
    i have this quality
    amazing and perfect
     
  10. mandrake

    mandrake Member

    Joined:
    Nov 30, 2016
    Messages:
    117
    Likes Received:
    4
    thank you much
     
  11. jloveres

    jloveres Active Member

    Joined:
    Jun 14, 2015
    Messages:
    705
    Likes Received:
    205
    thanks
     
  12. renan_rdgs

    renan_rdgs Member

    Joined:
    Dec 1, 2016
    Messages:
    100
    Likes Received:
    7
  13. kabrone

    kabrone Member

    Joined:
    Oct 16, 2015
    Messages:
    66
    Likes Received:
    3
    thanks
     
  14. BNJFEV

    BNJFEV Member

    Joined:
    Dec 14, 2013
    Messages:
    360
    Likes Received:
    8
    thanks so much
     
  15. eduardolugo0502

    eduardolugo0502 Member

    Joined:
    Dec 18, 2016
    Messages:
    42
    Likes Received:
    1
  16. luismolinanyc

    luismolinanyc Active Member

    Joined:
    May 17, 2016
    Messages:
    943
    Likes Received:
    35
  17. kapil17apr

    kapil17apr Member

    Joined:
    Nov 26, 2016
    Messages:
    194
    Likes Received:
    9
    Thanks
     
  18. genstar

    genstar New Member

    Joined:
    Jan 6, 2017
    Messages:
    1
    Likes Received:
    0
    amazing very nice share
     
  19. zepastel

    zepastel New Member

    Joined:
    May 16, 2015
    Messages:
    26
    Likes Received:
    0
  20. D3mon86

    D3mon86 Member

    Joined:
    Dec 19, 2016
    Messages:
    850
    Likes Received:
    14
    thanks
     
  21. orgulo

    orgulo Active Member

    Joined:
    Jan 16, 2017
    Messages:
    958
    Likes Received:
    46
    thanks