Shakira feat. Dizzee Rascal - Loca (MV) 1080i HDTV DD5.1 MPEG2-TrollHD

Discussion in 'MUSIC CHOICE' started by RGF72K, Oct 27, 2013.

  1. RGF72K

    RGF72K ????? Staff Member Super Moderator

    Joined:
    Oct 1, 2013
    Messages:
    1,020
    Likes Received:
    13,849
    [​IMG]

    Code:
          Complete name : (Music Video) Shakira feat. Dizzee Rascal - Loca 1080i HDTV DD5.1 MPEG2-TrollHD.ts
          Format : MPEG-TS
          File size : 451 MiB
          Duration : 3mn 25s
          Overall bit rate mode : Variable
          Overall bit rate : 18.4 Mbps
      Video #33
          ID : 33 (0x21)
          Menu ID : 1 (0x1)
          Format : MPEG Video
          Format version : Version 2
          Format profile : [email protected]
          Format settings, BVOP : Yes
          Format settings, Matrix : Custom
          Format settings, GOP : M=3, N=15
          Codec ID : 2
          Duration : 3mn 25s
          Bit rate mode : Variable
          Bit rate : 17.1 Mbps
          Maximum bit rate : 80.0 Mbps
          Width : 1 920 pixels
          Height : 1 080 pixels
          Display aspect ratio : 16:9
          Frame rate : 29.970 fps
          Color space : YUV
          Chroma subsampling : 4:2:0
          Bit depth : 8 bits
          Scan type : Interlaced
          Scan order : Top Field First
          Compression mode : Lossy
          Bits/(Pixel*Frame) : 0.275
          Time code of first frame : 00:00:00;00
          Time code source : Group of pictures header
          Stream size : 419 MiB (93%)
      Audio #36
          ID : 36 (0x24)
          Menu ID : 1 (0x1)
          Format : AC-3
          Format/Info : Audio Coding 3
          Mode extension : CM (complete main)
          Format settings, Endianness : Big
          Codec ID : 129
          Duration : 3mn 25s
          Bit rate mode : Constant
          Bit rate : 384 Kbps
          Channel(s) : 6 channels
          Channel positions : Front: L C R, Side: L R, LFE
          Sampling rate : 48.0 KHz
          Bit depth : 16 bits
          Compression mode : Lossy
          Stream size : 9.42 MiB (2%)
          Language : English
      Text #33-CC1
          ID : 33 (0x21)-CC1
          Menu ID : 1 (0x1)
          Format : EIA-608
          Muxing mode : A/53 / DTVCC Transport
          Muxing mode, more info : Muxed in Video #1
          Duration : 3mn 25s
          Bit rate mode : Constant
          Stream size : 0.00 Byte (0%)
      Text #33-1
          ID : 33 (0x21)-1
          Menu ID : 1 (0x1)
          Format : EIA-708
          Muxing mode : A/53 / DTVCC Transport
          Muxing mode, more info : Muxed in Video #1
          Duration : 3mn 25s
          Bit rate mode : Constant
          Stream size : 0.00 Byte (0%)


    Download:
    Hidden Content:
    You must either reply or click 'Like' to see the hidden information contained here.


    Password: sharemania.net


    Capper: TrollHD
     
  2. Loading...


  3. majid6888

    majid6888 Member

    Joined:
    Dec 15, 2013
    Messages:
    86
    Likes Received:
    1
    thx......
     
  4. withcap

    withcap Well-Known Member

    Joined:
    Oct 29, 2013
    Messages:
    1,311
    Likes Received:
    67
    Thanks!
     
  5. deleriumdj

    deleriumdj Member

    Joined:
    Mar 20, 2014
    Messages:
    27
    Likes Received:
    0
  6. faizan

    faizan Member

    Joined:
    Mar 9, 2014
    Messages:
    44
    Likes Received:
    0
  7. Alexander

    Alexander Member

    Joined:
    Apr 7, 2014
    Messages:
    74
    Likes Received:
    6
     
  8. tequest

    tequest Member

    Joined:
    May 8, 2014
    Messages:
    60
    Likes Received:
    15
    Is this quality better than Youtube?
     
  9. peny20

    peny20 Active Member

    Joined:
    Oct 23, 2013
    Messages:
    1,320
    Likes Received:
    23
    thanx
     
  10. Vjeans

    Vjeans Well-Known Member

    Joined:
    May 10, 2014
    Messages:
    863
    Likes Received:
    2,476
    Cool!Thanks!
     
  11. diana08

    diana08 Member

    Joined:
    Jun 21, 2014
    Messages:
    49
    Likes Received:
    1
    thanks so much
     
  12. mizdot

    mizdot Active Member

    Joined:
    Nov 13, 2014
    Messages:
    1,148
    Likes Received:
    20
    tnx man
     
  13. Dreamer

    Dreamer ♫ It's Britney Bitch ♫ Capper Uploader

    Joined:
    Dec 4, 2014
    Messages:
    2,136
    Likes Received:
    1,802
    Thank you so much
     
  14. 777josem

    777josem Well-Known Member Uploader

    Joined:
    Sep 1, 2014
    Messages:
    2,341
    Likes Received:
    1,252
    thanks!
     
  15. franklele

    franklele Well-Known Member

    Joined:
    Nov 11, 2013
    Messages:
    1,583
    Likes Received:
    63
    thank you
     
  16. MCTR

    MCTR Member

    Joined:
    Feb 23, 2014
    Messages:
    275
    Likes Received:
    23
    Thanks :D
     
  17. janito33

    janito33 Member

    Joined:
    Dec 10, 2014
    Messages:
    134
    Likes Received:
    1
    GRACIAS POR EL VIDEO
     
  18. Puchacz93

    Puchacz93 Well-Known Member

    Joined:
    Feb 4, 2015
    Messages:
    1,204
    Likes Received:
    637
    thank you.
     
  19. koko_love22

    koko_love22 Member

    Joined:
    Sep 30, 2015
    Messages:
    62
    Likes Received:
    2
    thank you :p