Shakira feat. Carlinhos Brown - La La La (Brazil 2014) (BridgeHD-1080i-MP2-Olgold)-HDMania

Discussion in 'Bridge HD' started by Olgold, Oct 11, 2016.

  1. Olgold

    Olgold Well-Known Member Capper

    Joined:
    Aug 19, 2015
    Messages:
    436
    Likes Received:
    1,651
    Shakira feat. Carlinhos Brown - La La La (Brazil 2014)
    [​IMG]
    General
    Format : MPEG-TS
    File size : 137 MiB
    Duration : 3 min 11 s
    Overall bit rate mode : Variable
    Overall bit rate : 5 904 kb/s

    Video
    Format : AVC
    Format/Info : Advanced Video Codec
    Format profile : [email protected]
    Format settings, CABAC : Yes
    Format settings, ReFrames : 4 frames
    Duration : 3 min 10 s
    Bit rate : 5 418 kb/s
    Width : 1 920 pixels
    Height : 1 080 pixels
    Display aspect ratio : 16:9
    Frame rate : 25.000 FPS
    Standard : Component
    Color space : YUV
    Chroma subsampling : 4:2:0
    Bit depth : 8 bits
    Scan type : Interlaced
    Scan type, store method : Separated fields
    Scan order : Top Field First
    Bits/(Pixel*Frame) : 0.105
    Stream size : 123 MiB (90%)
    Color range : Limited

    Audio
    Format : MPEG Audio
    Format version : Version 1
    Format profile : Layer 2
    Duration : 3 min 11 s
    Bit rate mode : Constant
    Bit rate : 192 kb/s
    Channel(s) : 2 channels
    Sampling rate : 48.0 kHz
    Compression mode : Lossy
    Delay relative to video : -568 ms
    Stream size : 4.39 MiB (3%)
    Password: Olgold

    Hidden Content:
    You must reply before you can see the hidden data contained here.
     
  2. Loading...


  3. rhea

    rhea Well-Known Member

    Joined:
    Jan 6, 2014
    Messages:
    6,213
    Likes Received:
    516
    thank you so much :)
     
  4. CELOBRAZiL

    CELOBRAZiL Well-Known Member Capper V . I . P. Donor

    Joined:
    Oct 2, 2013
    Messages:
    3,112
    Likes Received:
    8,973
    Thank you so much! :)
     
  5. Vjeans

    Vjeans Well-Known Member

    Joined:
    May 10, 2014
    Messages:
    995
    Likes Received:
    3,200
    Thank you!
     
  6. Roy0311

    Roy0311 Member

    Joined:
    Oct 10, 2016
    Messages:
    49
    Likes Received:
    1
    thanks
     
  7. Hyrus

    Hyrus Arianator / Selenator / Victorian / Saxobeat / LBS Donor

    Joined:
    Feb 9, 2015
    Messages:
    1,206
    Likes Received:
    834
    Thanks a lot for Shakira :happy::)
     
  8. BinhTVT

    BinhTVT Member

    Joined:
    Jun 30, 2015
    Messages:
    179
    Likes Received:
    3
    thanks
     
  9. meisam.sch

    meisam.sch Well-Known Member

    Joined:
    Jan 18, 2016
    Messages:
    1,051
    Likes Received:
    43
  10. stonecottage

    stonecottage Member

    Joined:
    Oct 24, 2016
    Messages:
    103
    Likes Received:
    15
    thank you
     
  11. hanshermann

    hanshermann Well-Known Member

    Joined:
    Aug 24, 2016
    Messages:
    4,164
    Likes Received:
    943
    wahts taht
     
  12. video60fps

    video60fps Member

    Joined:
    Nov 3, 2016
    Messages:
    63
    Likes Received:
    0
    hello
     
  13. lyana94

    lyana94 Active Member

    Joined:
    Jul 5, 2017
    Messages:
    1,129
    Likes Received:
    23
    thanks
     
  14. chello21

    chello21 Member

    Joined:
    Aug 5, 2017
    Messages:
    75
    Likes Received:
    0
  15. JSmoove

    JSmoove Member

    Joined:
    Nov 27, 2013
    Messages:
    76
    Likes Received:
    1
    thanks!