Shakira Feat. Alejandro Sanz - La Tortura (VH1HD-1080i-DD2.0-CELOBRAZiL)-HDMania

Discussion in 'VH1 HD' started by DETOX, Mar 17, 2015.

  1. Macadamia

    Macadamia New Member

    Joined:
    Jun 29, 2015
    Messages:
    16
    Likes Received:
    0
    thank you
     
  2. alberto piper naro

    alberto piper naro Member

    Joined:
    Jul 4, 2015
    Messages:
    490
    Likes Received:
    22
    gracias gracias
     
  3. Chris Sooz

    Chris Sooz Member

    Joined:
    Jan 13, 2016
    Messages:
    234
    Likes Received:
    3
    Thankss!
     
  4. astroninja

    astroninja Member

    Joined:
    Jul 5, 2015
    Messages:
    137
    Likes Received:
    5
    Like it)
    Thank you so much!!!
     
  5. leanfelipe

    leanfelipe Member

    Joined:
    Mar 24, 2016
    Messages:
    52
    Likes Received:
    2
    bom demaiss
     
  6. soybrulio

    soybrulio New Member

    Joined:
    May 8, 2016
    Messages:
    8
    Likes Received:
    0
    gracias DETOX, muy buenos videos
     
  7. Jrec

    Jrec Active Member

    Joined:
    May 11, 2016
    Messages:
    651
    Likes Received:
    30
    thanks
     
    Shakifanny likes this.
  8. 12fer12

    12fer12 Member

    Joined:
    Sep 4, 2016
    Messages:
    35
    Likes Received:
    0
    thanks
     
  9. Attention

    Attention Active Member

    Joined:
    Nov 30, 2013
    Messages:
    563
    Likes Received:
    30
    Very Thanks!!! :)
     
  10. serenity1203

    serenity1203 Member

    Joined:
    Sep 30, 2016
    Messages:
    61
    Likes Received:
    3
    siiiiiiiiiiiiiiiiiiiiiii
     
  11. wkwkwaku

    wkwkwaku Active Member

    Joined:
    May 23, 2015
    Messages:
    693
    Likes Received:
    205
  12. hanshermann

    hanshermann Well-Known Member Uploader

    Joined:
    Aug 24, 2016
    Messages:
    4,448
    Likes Received:
    1,523
    wahts taht
     
  13. marcelox14

    marcelox14 Member

    Joined:
    Jan 8, 2017
    Messages:
    104
    Likes Received:
    15
    thanks :D
     
  14. ramazanedvard

    ramazanedvard New Member

    Joined:
    Jan 14, 2016
    Messages:
    25
    Likes Received:
    0
  15. DiVenturas

    DiVenturas Well-Known Member

    Joined:
    Oct 21, 2015
    Messages:
    2,535
    Likes Received:
    98
  16. eduard55555

    eduard55555 Member

    Joined:
    Sep 29, 2016
    Messages:
    56
    Likes Received:
    2
    hey thereShakira (feat. Alejandro Sanz) - La Tortura (VH1HD-1080i-DD2.0-CELOBRAZiL)
    [​IMG]
    General
    ID : 1 (0x1)
    Complete name : Shakira (feat. Alejandro Sanz) - La Tortura (VH1HD-1080i-DD2.0-CELOBRAZiL).ts
    Format : MPEG-TS
    File size : 246 MiB
    Duration : 3mn 44s
    Overall bit rate mode : Variable
    Overall bit rate : 9 220 Kbps

    Video
    ID : 5408 (0x1520)
    Menu ID : 1 (0x1)
    Format : AVC
    Format/Info : Advanced Video Codec
    Format profile : [email protected]
    Format settings, CABAC : Yes
    Format settings, ReFrames : 2 frames
    Codec ID : 27
    Duration : 3mn 44s
    Bit rate : 8 377 Kbps
    Width : 1 920 pixels
    Height : 1 080 pixels
    Display aspect ratio : 16:9
    Frame rate : 29.970 fps
    Color space : YUV
    Chroma subsampling : 4:2:0
    Bit depth : 8 bits
    Scan type : MBAFF
    Scan order : Top Field First
    Bits/(Pixel*Frame) : 0.135
    Stream size : 224 MiB (91%)
    Color primaries : BT.709
    Transfer characteristics : BT.709
    Matrix coefficients : BT.709
    Color range : Limited

    Audio
    ID : 5410 (0x1522)
    Menu ID : 1 (0x1)
    Format : AC-3
    Format/Info : Audio Coding 3
    Mode extension : CM (complete main)
    Format settings, Endianness : Big
    Codec ID : 129
    Duration : 3mn 44s
    Bit rate mode : Constant
    Bit rate : 384 Kbps
    Channel(s) : 2 channels
    Channel positions : Front: L R
    Sampling rate : 48.0 KHz
    Bit depth : 16 bits
    Compression mode : Lossy
    Stream size : 10.3 MiB (4%)
    Language : English

    Credits to CELOBRAZiL

    SERVER: MEGA / PASSWORD: DETOX
    ***Hidden content cannot be quoted.***

    [/QUOTE]
     
  17. valtersc

    valtersc Active Member

    Joined:
    Nov 19, 2014
    Messages:
    247
    Likes Received:
    143
  18. erroljr1977

    erroljr1977 Member

    Joined:
    Apr 18, 2017
    Messages:
    434
    Likes Received:
    7
    sweet
     
  19. David_DESP

    David_DESP Member

    Joined:
    Oct 18, 2015
    Messages:
    106
    Likes Received:
    5
    Me trae nostalgia